  0
SECTION
  2
HEADER
  9
$ACADVER
  1
AC1015
  9
$ACADMAINTVER
 70
     6
  9
$DWGCODEPAGE
  3
ANSI_1252
  9
$INSBASE
 10
0.0
 20
0.0
 30
0.0
  9
$EXTMIN
 10
1.000000E+20
 20
1.000000E+20
 30
1.000000E+20
  9
$EXTMAX
 10
-1.000000E+20
 20
-1.000000E+20
 30
-1.000000E+20
  9
$LIMMIN
 10
0.0
 20
0.0
  9
$LIMMAX
 10
0.0
 20
0.0
  9
$ORTHOMODE
 70
     0
  9
$REGENMODE
 70
     1
  9
$FILLMODE
 70
     1
  9
$QTEXTMODE
 70
     0
  9
$MIRRTEXT
 70
     1
  9
$LTSCALE
 40
1.0
  9
$ATTMODE
 70
     1
  9
$TEXTSIZE
 40
0.2
  9
$TRACEWID
 40
0.05
  9
$TEXTSTYLE
  7
Standard
  9
$CLAYER
  8
0
  9
$CELTYPE
  6
Continuous
  9
$CECOLOR
 62
   256
  9
$CELTSCALE
 40
1.0
  9
$DISPSILH
 70
     0
  9
$DIMSCALE
 40
1.0
  9
$DIMASZ
 40
0.18
  9
$DIMEXO
 40
0.0625
  9
$DIMDLI
 40
0.38
  9
$DIMRND
 40
0.0
  9
$DIMDLE
 40
0.0
  9
$DIMEXE
 40
0.18
  9
$DIMTP
 40
0.0
  9
$DIMTM
 40
0.0
  9
$DIMTXT
 40
0.18
  9
$DIMCEN
 40
0.09
  9
$DIMTSZ
 40
0.0
  9
$DIMTOL
 70
     0
  9
$DIMLIM
 70
     0
  9
$DIMTIH
 70
     1
  9
$DIMTOH
 70
     1
  9
$DIMSE1
 70
     0
  9
$DIMSE2
 70
     0
  9
$DIMTAD
 70
     0
  9
$DIMZIN
 70
     0
  9
$DIMBLK
  1

  9
$DIMASO
 70
     1
  9
$DIMSHO
 70
     1
  9
$DIMPOST
  1

  9
$DIMAPOST
  1

  9
$DIMALT
 70
     0
  9
$DIMALTD
 70
     2
  9
$DIMALTF
 40
25.4
  9
$DIMLFAC
 40
1.0
  9
$DIMTOFL
 70
     0
  9
$DIMTVP
 40
0.0
  9
$DIMTIX
 70
     0
  9
$DIMSOXD
 70
     0
  9
$DIMSAH
 70
     0
  9
$DIMBLK1
  1

  9
$DIMBLK2
  1

  9
$DIMSTYLE
  2
Standard
  9
$DIMCLRD
 70
     0
  9
$DIMCLRE
 70
     0
  9
$DIMCLRT
 70
     0
  9
$DIMTFAC
 40
1.0
  9
$DIMGAP
 40
0.09
  9
$DIMJUST
 70
     0
  9
$DIMSD1
 70
     0
  9
$DIMSD2
 70
     0
  9
$DIMTOLJ
 70
     1
  9
$DIMTZIN
 70
     0
  9
$DIMALTZ
 70
     0
  9
$DIMALTTZ
 70
     0
  9
$DIMUPT
 70
     0
  9
$DIMDEC
 70
     4
  9
$DIMTDEC
 70
     4
  9
$DIMALTU
 70
     2
  9
$DIMALTTD
 70
     2
  9
$DIMTXSTY
  7
Standard
  9
$DIMAUNIT
 70
     0
  9
$DIMADEC
 70
     0
  9
$DIMALTRND
 40
0.0
  9
$DIMAZIN
 70
     0
  9
$DIMDSEP
 70
     0
  9
$DIMATFIT
 70
     3
  9
$DIMFRAC
 70
     0
  9
$DIMLDRBLK
  1

  9
$DIMLUNIT
 70
     2
  9
$DIMLWD
 70
     0
  9
$DIMLWE
 70
     0
  9
$DIMTMOVE
 70
     0
  9
$LUNITS
 70
     2
  9
$LUPREC
 70
     4
  9
$SKETCHINC
 40
0.1
  9
$FILLETRAD
 40
0.0
  9
$AUNITS
 70
     0
  9
$AUPREC
 70
     0
  9
$MENU
  1
acad
  9
$ELEVATION
 40
0.0
  9
$PELEVATION
 40
0.0
  9
$THICKNESS
 40
0.0
  9
$LIMCHECK
 70
     0
  9
$CHAMFERA
 40
0.0
  9
$CHAMFERB
 40
0.0
  9
$CHAMFERC
 40
0.0
  9
$CHAMFERD
 40
0.0
  9
$SKPOLY
 70
     0
  9
$TDCREATE
 40
0.000000000
  9
$TDUCREATE
 40
0.000000000
  9
$TDUPDATE
 40
0.000000000
  9
$TDUUPDATE
 40
0.000000000
  9
$TDINDWG
 40
0.0000000000
  9
$TDUSRTIMER
 40
0.0000000000
  9
$USRTIMER
 70
     1
  9
$ANGBASE
 50
0.0
  9
$ANGDIR
 70
     0
  9
$PDMODE
 70
     0
  9
$PDSIZE
 40
0.0
  9
$PLINEWID
 40
0.0
  9
$SPLFRAME
 70
     0
  9
$SPLINETYPE
 70
     6
  9
$SPLINESEGS
 70
     8
  9
$HANDSEED
  5
26F
  9
$SURFTAB1
 70
     6
  9
$SURFTAB2
 70
     6
  9
$SURFTYPE
 70
     6
  9
$SURFU
 70
     6
  9
$SURFV
 70
     6
  9
$UCSBASE
  2

  9
$UCSNAME
  2

  9
$UCSORG
 10
0.0
 20
0.0
 30
0.0
  9
$UCSXDIR
 10
1.0
 20
0.0
 30
0.0
  9
$UCSYDIR
 10
0.0
 20
1.0
 30
0.0
  9
$UCSORTHOREF
  2

  9
$UCSORTHOVIEW
 70
     0
  9
$UCSORGTOP
 10
0.0
 20
0.0
 30
0.0
  9
$UCSORGBOTTOM
 10
0.0
 20
0.0
 30
0.0
  9
$UCSORGLEFT
 10
0.0
 20
0.0
 30
0.0
  9
$UCSORGRIGHT
 10
0.0
 20
0.0
 30
0.0
  9
$UCSORGFRONT
 10
0.0
 20
0.0
 30
0.0
  9
$UCSORGBACK
 10
0.0
 20
0.0
 30
0.0
  9
$PUCSBASE
  2

  9
$PUCSNAME
  2

  9
$PUCSORG
 10
0.0
 20
0.0
 30
0.0
  9
$PUCSXDIR
 10
1.0
 20
0.0
 30
0.0
  9
$PUCSYDIR
 10
0.0
 20
1.0
 30
0.0
  9
$PUCSORTHOREF
  2

  9
$PUCSORTHOVIEW
 70
     0
  9
$PUCSORGTOP
 10
0.0
 20
0.0
 30
0.0
  9
$PUCSORGBOTTOM
 10
0.0
 20
0.0
 30
0.0
  9
$PUCSORGLEFT
 10
0.0
 20
0.0
 30
0.0
  9
$PUCSORGRIGHT
 10
0.0
 20
0.0
 30
0.0
  9
$PUCSORGFRONT
 10
0.0
 20
0.0
 30
0.0
  9
$PUCSORGBACK
 10
0.0
 20
0.0
 30
0.0
  9
$USERI1
 70
 12345
  9
$USERI2
 70
     0
  9
$USERI3
 70
     0
  9
$USERI4
 70
     0
  9
$USERI5
 70
     0
  9
$USERR1
 40
0.0
  9
$USERR2
 40
0.0
  9
$USERR3
 40
0.0
  9
$USERR4
 40
0.0
  9
$USERR5
 40
0.0
  9
$WORLDVIEW
 70
     1
  9
$SHADEDGE
 70
     3
  9
$SHADEDIF
 70
    70
  9
$TILEMODE
 70
     1
  9
$MAXACTVP
 70
    64
  9
$PINSBASE
 10
0.0
 20
0.0
 30
0.0
  9
$PLIMCHECK
 70
     0
  9
$PEXTMIN
 10
1.000000E+20
 20
1.000000E+20
 30
1.000000E+20
  9
$PEXTMAX
 10
-1.000000E+20
 20
-1.000000E+20
 30
-1.000000E+20
  9
$PLIMMIN
 10
0.0
 20
0.0
  9
$PLIMMAX
 10
12.0
 20
9.0
  9
$UNITMODE
 70
     0
  9
$VISRETAIN
 70
     0
  9
$PLINEGEN
 70
     1
  9
$PSLTSCALE
 70
     0
  9
$TREEDEPTH
 70
  3020
  9
$CMLSTYLE
  2
Standard
  9
$CMLJUST
 70
     0
  9
$CMLSCALE
 40
1.0
  9
$PROXYGRAPHICS
 70
     0
  9
$MEASUREMENT
 70
     0
  9
$CELWEIGHT
370
     0
  9
$ENDCAPS
280
     0
  9
$JOINSTYLE
280
     0
  9
$LWDISPLAY
290
     0
  9
$INSUNITS
 70
     0
  9
$HYPERLINKBASE
  1

  9
$STYLESHEET
  1

  9
$XEDIT
290
     1
  9
$CEPSNTYPE
380
     0
  9
$PSTYLEMODE
290
     1
  9
$FINGERPRINTGUID
  2

  9
$VERSIONGUID
  2

  9
$EXTNAMES
290
     1
  9
$PSVPSCALE
 40
0.0
  0
ENDSEC
  0
SECTION
  2
CLASSES
  0
CLASS
  1
LWPOLYLINE
  2
AcDbPolyline
  3
AutoCAD 2000
 90
        0
280
     0
281
     1
  0
CLASS
  1
IMAGE
  2
AcDbRasterImage
  3
ISM
 90
      127
280
     0
281
     1
  0
CLASS
  1
OLE2FRAME
  2
AcDbOle2Frame
  3
AutoCAD 2000
 90
        0
280
     0
281
     1
  0
CLASS
  1
HATCH
  2
AcDbHatch
  3
AutoCAD 2000
 90
        0
280
     0
281
     1
  0
CLASS
  1
DICTIONARYVAR
  2
AcDbDictionaryVar
  3
AutoCAD 2000
 90
        0
280
     0
281
     0
  0
CLASS
  1
RASTERVARIABLES
  2
AcDbRasterVariables
  3
ISM
 90
        0
280
     0
281
     0
  0
CLASS
  1
IMAGEDEF
  2
AcDbRasterImageDef
  3
ISM
 90
        0
280
     0
281
     0
  0
CLASS
  1
IMAGEDEF_REACTOR
  2
AcDbRasterImageDefReactor
  3
ISM
 90
        1
280
     0
281
     0
  0
CLASS
  1
IDBUFFER
  2
AcDbIdBuffer
  3
AutoCAD 2000
 90
        0
280
     0
281
     0
  0
CLASS
  1
SPATIAL_FILTER
  2
AcDbSpatialFilter
  3
AutoCAD 2000
 90
        0
280
     0
281
     0
  0
CLASS
  1
XRECORD
  2
AcDbXrecord
  3
AutoCAD 2000
 90
        0
280
     0
281
     0
  0
CLASS
  1
SORTENTSTABLE
  2
AcDbSortentsTable
  3
AutoCAD 2000
 90
        0
280
     0
281
     0
  0
CLASS
  1
LAYER_INDEX
  2
AcDbLayerIndex
  3
AutoCAD 2000
 90
        0
280
     0
281
     0
  0
CLASS
  1
SPATIAL_INDEX
  2
AcDbSpatialIndex
  3
AutoCAD 2000
 90
        0
280
     0
281
     0
  0
CLASS
  1
OBJECT_PTR
  2
CAseDLPNTableRecord
  3
"ASE-LPNTableRecord"
 90
        1
280
     0
281
     0
  0
CLASS
  1
LAYOUT
  2
AcDbLayout
  3
AutoCAD 2000
 90
        0
280
     0
281
     0
  0
CLASS
  1
PLOTSETTINGS
  2
AcDbPlotSettings
  3
AutoCAD 2000
 90
        0
280
     0
281
     0
  0
CLASS
  1
ACDBDICTIONARYWDFLT
  2
AcDbDictionaryWithDefault
  3
AutoCAD 2000
 90
        0
280
     0
281
     0
  0
CLASS
  1
ACDBPLACEHOLDER
  2
AcDbPlaceHolder
  3
AutoCAD 2000
 90
        0
280
     0
281
     0
  0
CLASS
  1
VBA_PROJECT
  2
AcDbVbaProject
  3
acadvba
 90
        0
280
     0
281
     0
  0
CLASS
  1
WIPEOUT
  2
AcDbWipeout
  3
WipeOut|AutoCAD Express Tool|expresstools@autodesk.com
 90
      127
280
     0
281
     1
  0
CLASS
  1
WIPEOUTVARIABLES
  2
AcDbWipeoutVariables
  3
WipeOut|AutoCAD Express Tool|expresstools@autodesk.com
 90
        0
280
     0
281
     0
  0
CLASS
  1
RTEXT
  2
RText
  3
RText|AutoCAD Express Tool|expresstools@autodesk.com
 90
        0
280
     0
281
     1
  0
CLASS
  1
ARCALIGNEDTEXT
  2
AcDbArcAlignedText
  3
ATEXT|AutoCAD Express Tool|expresstools@autodesk.com
 90
        0
280
     0
281
     1
  0
ENDSEC
  0
SECTION
  2
TABLES
  0
TABLE
  2
VPORT
  5
7
100
AcDbSymbolTable
 70
     1
  0
VPORT
  5
15
100
AcDbSymbolTableRecord
100
AcDbViewportTableRecord
  2
*ACTIVE
 70
     0
 10
0.0
 20
0.0
 11
1.0
 21
1.0
 12
2861.484354
 22
-958.468842
 13
0.0
 23
0.0
 14
1.0
 24
1.0
 15
0.0
 25
0.0
 16
0.0
 26
0.0
 36
1.0
 17
0.0
 27
0.0
 37
0.0
 40
2636.045227
 41
0.688564
 42
50.0
 43
0.0
 44
0.0
 50
0.0
 51
0.0
 71
     0
 72
   100
 73
     1
 74
     1
 75
     0
 76
     0
 77
     0
 78
     0
281
     0
 65
     0
110
0.0
120
0.0
130
0.0
111
1.0
121
0.0
131
0.0
112
0.0
122
1.0
132
0.0
345
0
346
0
 79
     0
146
0.0
  0
ENDTAB
  0
TABLE
  2
LTYPE
  5
4
100
AcDbSymbolTable
 70
     7
  0
LTYPE
  5
11
100
AcDbSymbolTableRecord
100
AcDbLinetypeTableRecord
  2
ByBlock
 70
    64
  3

 72
    65
 73
     0
 40
0.0
  0
LTYPE
  5
12
100
AcDbSymbolTableRecord
100
AcDbLinetypeTableRecord
  2
ByLayer
 70
    64
  3

 72
    65
 73
     0
 40
0.0
  0
LTYPE
  5
13
100
AcDbSymbolTableRecord
100
AcDbLinetypeTableRecord
  2
Continuous
 70
    64
  3
Solid line
 72
    65
 73
     0
 40
0.0
  0
LTYPE
  5
24
100
AcDbSymbolTableRecord
100
AcDbLinetypeTableRecord
  2
DASHED
 70
    64
  3
Dashed __ __ __
 72
    65
 73
     2
 40
200.0
 49
100.0
 74
     0
 49
-100.0
 74
     0
  0
LTYPE
  5
25
100
AcDbSymbolTableRecord
100
AcDbLinetypeTableRecord
  2
DOT
 70
    64
  3
Dot . . . .
 72
    65
 73
     2
 40
150.0
 49
25.0
 74
     0
 49
-125.0
 74
     0
  0
LTYPE
  5
26
100
AcDbSymbolTableRecord
100
AcDbLinetypeTableRecord
  2
DASHDOT
 70
    64
  3
Dash dot __ . __ .
 72
    65
 73
     4
 40
1250.0
 49
1000.0
 74
     0
 49
-112.5
 74
     0
 49
25.0
 74
     0
 49
-112.5
 74
     0
  0
LTYPE
  5
27
100
AcDbSymbolTableRecord
100
AcDbLinetypeTableRecord
  2
DIVIDE
 70
    64
  3
Divide __ . . __ . .
 72
    65
 73
     6
 40
1250.0
 49
862.5
 74
     0
 49
-112.5
 74
     0
 49
25.0
 74
     0
 49
-112.5
 74
     0
 49
25.0
 74
     0
 49
-112.5
 74
     0
  0
ENDTAB
  0
TABLE
  2
LAYER
  5
2
100
AcDbSymbolTable
 70
     3
  0
LAYER
  5
14
100
AcDbSymbolTableRecord
100
AcDbLayerTableRecord
  2
0
 70
     0
 62
     7
  6
Continuous
290
     1
370
    -3
390
1D
  0
LAYER
  5
29
100
AcDbSymbolTableRecord
100
AcDbLayerTableRecord
  2
LAYER47
 70
     0
 62
     7
  6
Continuous
290
     1
370
    -3
390
1D
  0
LAYER
  5
2C
100
AcDbSymbolTableRecord
100
AcDbLayerTableRecord
  2
LAYER01
 70
     0
 62
     7
  6
Continuous
290
     1
370
    -3
390
1D
  0
ENDTAB
  0
TABLE
  2
STYLE
  5
3
100
AcDbSymbolTable
 70
     1
  0
STYLE
  5
17
100
AcDbSymbolTableRecord
100
AcDbTextStyleTableRecord
  2
Standard
 70
     0
 40
0.0
 41
1.0
 50
0.0
 71
     0
 42
0.0
  3
txt
  4

  0
ENDTAB
  0
TABLE
  2
VIEW
  5
5
100
AcDbSymbolTable
 70
     0
  0
ENDTAB
  0
TABLE
  2
UCS
  5
6
100
AcDbSymbolTable
 70
     0
  0
ENDTAB
  0
TABLE
  2
APPID
  5
8
100
AcDbSymbolTable
 70
     1
  0
APPID
  5
16
100
AcDbSymbolTableRecord
100
AcDbRegAppTableRecord
  2
ACAD
 70
     0
  0
ENDTAB
  0
TABLE
  2
DIMSTYLE
  5
9
100
AcDbSymbolTable
 70
     5
100
AcDbDimStyleTable
 71
     0
  0
DIMSTYLE
105
18
100
AcDbSymbolTableRecord
100
AcDbDimStyleTableRecord
  2
Standard
 70
     0
  3

  4

 40
1.0
 41
0.18
 42
0.0625
 43
0.38
 44
0.18
 45
0.0
 46
0.0
 47
0.0
 48
0.0
 71
     0
 72
     0
 73
     1
 74
     1
 75
     0
 76
     0
 77
     0
 78
     0
 79
     0
140
0.18
141
0.09
142
0.0
143
25.4
144
1.0
145
0.0
146
1.0
147
0.09
148
0.0
170
     0
171
     2
172
     0
173
     0
174
     0
175
     0
176
     0
177
     0
178
     0
179
     0
271
     4
272
     4
273
     2
274
     2
275
     0
276
     0
277
     2
278
    46
279
     0
280
     0
281
     0
282
     0
283
     1
284
     0
285
     0
286
     0
288
     0
289
     3
340
17
341
0
342
0
343
0
344
0
371
    -2
372
    -2
  0
DIMSTYLE
105
205
100
AcDbSymbolTableRecord
100
AcDbDimStyleTableRecord
  2
ARKXD33
 70
     0
  3

  4

 40
1.0
 41
18.0
 42
0.0625
 43
0.38
 44
0.18
 45
0.0
 46
0.0
 47
0.0
 48
0.0
 71
     0
 72
     0
 73
     0
 74
     0
 75
     1
 76
     1
 77
     1
 78
     0
 79
     0
140
16.2
141
0.09
142
0.0
143
25.4
144
1.0
145
0.0
146
1.0
147
1.62
148
0.0
170
     0
171
     2
172
     1
173
     0
174
     0
175
     0
176
   213
177
     0
178
     0
179
     0
271
     0
272
     4
273
     2
274
     2
275
     0
276
     0
277
     2
278
    46
279
     0
280
     0
281
     0
282
     0
283
     1
284
     0
285
     0
286
     0
288
     0
289
     3
340
17
341
0
342
0
343
0
344
0
371
    13
372
    -2
  0
DIMSTYLE
105
216
100
AcDbSymbolTableRecord
100
AcDbDimStyleTableRecord
  2
ARKXD30
 70
     0
  3

  4

 40
1.0
 41
10.0
 42
0.0625
 43
0.38
 44
0.18
 45
0.0
 46
0.0
 47
0.0
 48
0.0
 71
     0
 72
     0
 73
     0
 74
     0
 75
     1
 76
     1
 77
     1
 78
     0
 79
     0
140
9.0
141
0.09
142
0.0
143
25.4
144
1.0
145
0.0
146
1.0
147
0.9
148
0.0
170
     0
171
     2
172
     1
173
     0
174
     0
175
     0
176
   213
177
     0
178
     0
179
     0
271
     0
272
     4
273
     2
274
     2
275
     0
276
     0
277
     2
278
    46
279
     0
280
     0
281
     0
282
     0
283
     1
284
     0
285
     0
286
     0
288
     0
289
     3
340
17
341
0
342
0
343
0
344
0
371
    13
372
    -2
  0
DIMSTYLE
105
21B
100
AcDbSymbolTableRecord
100
AcDbDimStyleTableRecord
  2
ARKXD2
 70
     0
  3

  4

 40
1.0
 41
13.0
 42
0.0625
 43
0.38
 44
0.18
 45
0.0
 46
0.0
 47
0.0
 48
0.0
 71
     0
 72
     0
 73
     0
 74
     0
 75
     1
 76
     1
 77
     1
 78
     0
 79
     0
140
11.7
141
0.09
142
0.0
143
25.4
144
1.0
145
0.0
146
1.0
147
1.17
148
0.0
170
     0
171
     2
172
     1
173
     0
174
     0
175
     0
176
   213
177
     0
178
     0
179
     0
271
     0
272
     4
273
     2
274
     2
275
     0
276
     0
277
     2
278
    46
279
     0
280
     0
281
     0
282
     0
283
     1
284
     0
285
     0
286
     0
288
     0
289
     3
340
17
341
0
342
0
343
0
344
0
371
    13
372
    -2
  0
DIMSTYLE
105
238
100
AcDbSymbolTableRecord
100
AcDbDimStyleTableRecord
  2
~R--E-C~
 70
     0
  3

  4

 40
1.0
 41
18.0
 42
0.0625
 43
0.38
 44
0.18
 45
0.0
 46
0.0
 47
0.0
 48
0.0
 71
     0
 72
     0
 73
     0
 74
     0
 75
     1
 76
     1
 77
     1
 78
     0
 79
     0
140
16.2
141
0.09
142
0.0
143
25.4
144
1.0
145
0.0
146
1.0
147
1.62
148
0.0
170
     0
171
     2
172
     1
173
     0
174
     0
175
     0
176
   213
177
     0
178
     0
179
     0
271
     1
272
     4
273
     2
274
     2
275
     0
276
     0
277
     2
278
    46
279
     0
280
     0
281
     0
282
     0
283
     1
284
     0
285
     0
286
     0
288
     0
289
     3
340
17
341
0
342
0
343
0
344
0
371
    13
372
    -2
  0
ENDTAB
  0
TABLE
  2
BLOCK_RECORD
  5
1
100
AcDbSymbolTable
 70
    47
  0
BLOCK_RECORD
  5
A
100
AcDbSymbolTableRecord
100
AcDbBlockTableRecord
  2
*MODEL_SPACE
340
20
  0
BLOCK_RECORD
  5
B
100
AcDbSymbolTableRecord
100
AcDbBlockTableRecord
  2
*PAPER_SPACE
340
21
  0
BLOCK_RECORD
  5
2D
100
AcDbSymbolTableRecord
100
AcDbBlockTableRecord
  2
D47ZBANK_A1_0
340
0
102
{BLKREFS
331
42
331
155
102
}
  0
BLOCK_RECORD
  5
43
100
AcDbSymbolTableRecord
100
AcDbBlockTableRecord
  2
D47ZB1NK_A1_0
340
0
102
{BLKREFS
331
5A
102
}
  0
BLOCK_RECORD
  5
5B
100
AcDbSymbolTableRecord
100
AcDbBlockTableRecord
  2
D47ZB2NK_A1_0
340
0
102
{BLKREFS
331
72
102
}
  0
BLOCK_RECORD
  5
73
100
AcDbSymbolTableRecord
100
AcDbBlockTableRecord
  2
A47ZBANK_A1_0
340
0
102
{BLKREFS
331
80
102
}
  0
BLOCK_RECORD
  5
81
100
AcDbSymbolTableRecord
100
AcDbBlockTableRecord
  2
D47ZB3NK_A1_0
340
0
102
{BLKREFS
331
95
102
}
  0
BLOCK_RECORD
  5
96
100
AcDbSymbolTableRecord
100
AcDbBlockTableRecord
  2
P47ZB1NK_A1_0
340
0
102
{BLKREFS
331
A5
102
}
  0
BLOCK_RECORD
  5
A6
100
AcDbSymbolTableRecord
100
AcDbBlockTableRecord
  2
P47ZB3NK_A1_0
340
0
102
{BLKREFS
331
B1
102
}
  0
BLOCK_RECORD
  5
B2
100
AcDbSymbolTableRecord
100
AcDbBlockTableRecord
  2
P47ZB2NK_A1_0
340
0
102
{BLKREFS
331
C1
102
}
  0
BLOCK_RECORD
  5
C2
100
AcDbSymbolTableRecord
100
AcDbBlockTableRecord
  2
A47ZB1NK_A1_0
340
0
102
{BLKREFS
331
CA
102
}
  0
BLOCK_RECORD
  5
CB
100
AcDbSymbolTableRecord
100
AcDbBlockTableRecord
  2
A47ZB2NK_A1_0
340
0
102
{BLKREFS
331
D3
102
}
  0
BLOCK_RECORD
  5
D4
100
AcDbSymbolTableRecord
100
AcDbBlockTableRecord
  2
A47ZB3NK_A1_0
340
0
102
{BLKREFS
331
DB
102
}
  0
BLOCK_RECORD
  5
DE
100
AcDbSymbolTableRecord
100
AcDbBlockTableRecord
  2
DUMMY1NK_A1_0
340
0
102
{BLKREFS
331
E2
331
E3
331
E9
331
116
331
117
102
}
  0
BLOCK_RECORD
  5
EC
100
AcDbSymbolTableRecord
100
AcDbBlockTableRecord
  2
D47CJANK_A1_0
340
0
102
{BLKREFS
331
113
331
114
331
115
102
}
  0
BLOCK_RECORD
  5
118
100
AcDbSymbolTableRecord
100
AcDbBlockTableRecord
  2
DUMMY1NK_M_A1_0
340
0
102
{BLKREFS
331
11C
102
}
  0
BLOCK_RECORD
  5
11D
100
AcDbSymbolTableRecord
100
AcDbBlockTableRecord
  2
D47CJANK_M_A1_0
340
0
102
{BLKREFS
331
144
102
}
  0
BLOCK_RECORD
  5
145
100
AcDbSymbolTableRecord
100
AcDbBlockTableRecord
  2
D47CJ1NK_A1_0
340
0
102
{BLKREFS
331
154
102
}
  0
BLOCK_RECORD
  5
156
100
AcDbSymbolTableRecord
100
AcDbBlockTableRecord
  2
D47CJ2NK_A1_0
340
0
102
{BLKREFS
331
165
102
}
  0
BLOCK_RECORD
  5
166
100
AcDbSymbolTableRecord
100
AcDbBlockTableRecord
  2
D47CJ3NK_A1_0
340
0
102
{BLKREFS
331
175
102
}
  0
BLOCK_RECORD
  5
184
100
AcDbSymbolTableRecord
100
AcDbBlockTableRecord
  2
44444____A1_100_0
340
0
  0
BLOCK_RECORD
  5
1A1
100
AcDbSymbolTableRecord
100
AcDbBlockTableRecord
  2
TSCRC3FC3F___A1_100_0
340
0
  0
BLOCK_RECORD
  5
1AB
100
AcDbSymbolTableRecord
100
AcDbBlockTableRecord
  2
11111____A1_100_0
340
0
  0
BLOCK_RECORD
  5
1BE
100
AcDbSymbolTableRecord
100
AcDbBlockTableRecord
  2
D47CJANK_A1_S_0
340
0
102
{BLKREFS
331
1C2
331
1C3
331
1C4
102
}
  0
BLOCK_RECORD
  5
1C5
100
AcDbSymbolTableRecord
100
AcDbBlockTableRecord
  2
D47CJANK_M_A1_S_0
340
0
102
{BLKREFS
331
1C9
102
}
  0
BLOCK_RECORD
  5
1CA
100
AcDbSymbolTableRecord
100
AcDbBlockTableRecord
  2
D47CJ1NK_A1_S_0
340
0
102
{BLKREFS
331
1CE
102
}
  0
BLOCK_RECORD
  5
1CF
100
AcDbSymbolTableRecord
100
AcDbBlockTableRecord
  2
D47CJ2NK_A1_S_0
340
0
102
{BLKREFS
331
1D7
102
}
  0
BLOCK_RECORD
  5
1D8
100
AcDbSymbolTableRecord
100
AcDbBlockTableRecord
  2
D47CJ3NK_A1_S_0
340
0
102
{BLKREFS
331
1E0
102
}
  0
BLOCK_RECORD
  5
1E1
100
AcDbSymbolTableRecord
100
AcDbBlockTableRecord
  2
A47ZBANK_A1_H_0
340
0
102
{BLKREFS
331
1E6
102
}
  0
BLOCK_RECORD
  5
1E7
100
AcDbSymbolTableRecord
100
AcDbBlockTableRecord
  2
P47ZB1NK_A1_H_0
340
0
102
{BLKREFS
331
1EE
102
}
  0
BLOCK_RECORD
  5
1EF
100
AcDbSymbolTableRecord
100
AcDbBlockTableRecord
  2
P47ZB2NK_A1_H_0
340
0
102
{BLKREFS
331
1F6
102
}
  0
BLOCK_RECORD
  5
1F7
100
AcDbSymbolTableRecord
100
AcDbBlockTableRecord
  2
A47ZB1NK_A1_H_0
340
0
102
{BLKREFS
331
1FB
102
}
  0
BLOCK_RECORD
  5
1FC
100
AcDbSymbolTableRecord
100
AcDbBlockTableRecord
  2
A47ZB2NK_A1_H_0
340
0
102
{BLKREFS
331
200
102
}
  0
BLOCK_RECORD
  5
201
100
AcDbSymbolTableRecord
100
AcDbBlockTableRecord
  2
*D31
340
0
  0
BLOCK_RECORD
  5
206
100
AcDbSymbolTableRecord
100
AcDbBlockTableRecord
  2
*D32
340
0
  0
BLOCK_RECORD
  5
20A
100
AcDbSymbolTableRecord
100
AcDbBlockTableRecord
  2
*D33
340
0
  0
BLOCK_RECORD
  5
20E
100
AcDbSymbolTableRecord
100
AcDbBlockTableRecord
  2
*D34
340
0
  0
BLOCK_RECORD
  5
212
100
AcDbSymbolTableRecord
100
AcDbBlockTableRecord
  2
*D35
340
0
  0
BLOCK_RECORD
  5
217
100
AcDbSymbolTableRecord
100
AcDbBlockTableRecord
  2
*D36
340
0
  0
BLOCK_RECORD
  5
21C
100
AcDbSymbolTableRecord
100
AcDbBlockTableRecord
  2
*D37
340
0
  0
BLOCK_RECORD
  5
220
100
AcDbSymbolTableRecord
100
AcDbBlockTableRecord
  2
*D38
340
0
  0
BLOCK_RECORD
  5
224
100
AcDbSymbolTableRecord
100
AcDbBlockTableRecord
  2
*D39
340
0
  0
BLOCK_RECORD
  5
227
100
AcDbSymbolTableRecord
100
AcDbBlockTableRecord
  2
X00H1____A1_100_0
340
0
  0
BLOCK_RECORD
  5
22E
100
AcDbSymbolTableRecord
100
AcDbBlockTableRecord
  2
X00H1____M_A1_100_0
340
0
  0
BLOCK_RECORD
  5
239
100
AcDbSymbolTableRecord
100
AcDbBlockTableRecord
  2
*D42
340
0
  0
BLOCK_RECORD
  5
243
100
AcDbSymbolTableRecord
100
AcDbBlockTableRecord
  2
*D43
340
0
  0
BLOCK_RECORD
  5
24D
100
AcDbSymbolTableRecord
100
AcDbBlockTableRecord
  2
*D44
340
0
  0
BLOCK_RECORD
  5
257
100
AcDbSymbolTableRecord
100
AcDbBlockTableRecord
  2
*D45
340
0
  0
BLOCK_RECORD
  5
261
100
AcDbSymbolTableRecord
100
AcDbBlockTableRecord
  2
*D46
340
0
  0
ENDTAB
  0
ENDSEC
  0
SECTION
  2
BLOCKS
  0
BLOCK
  5
D
100
AcDbEntity
  8
0
390
0
100
AcDbBlockBegin
  2
*MODEL_SPACE
 70
     0
 10
0.0
 20
0.0
 30
0.0
  3
*MODEL_SPACE
  1

  0
ENDBLK
  5
E
100
AcDbEntity
  8
0
390
0
100
AcDbBlockEnd
  0
BLOCK
  5
F
100
AcDbEntity
 67
     1
  8
0
390
0
100
AcDbBlockBegin
  2
*PAPER_SPACE
 70
     0
 10
0.0
 20
0.0
 30
0.0
  3
*PAPER_SPACE
  1

  0
ENDBLK
  5
10
100
AcDbEntity
 67
     1
  8
0
390
0
100
AcDbBlockEnd
  0
BLOCK
  5
2E
100
AcDbEntity
  8
0
390
0
100
AcDbBlockBegin
  2
D47ZBANK_A1_0
 70
     0
 10
0.0
 20
0.0
 30
0.0
  3
D47ZBANK_A1_0
  1

  0
LWPOLYLINE
  5
2F
100
AcDbEntity
  8
LAYER47
370
    25
390
0
  6
Continuous
 62
    92
100
AcDbPolyline
 90
        7
 70
     0
 10
0.0
 20
91.003906
 42
-0.234761
 10
100.410645
 20
41.109314
 42
-0.162884
 10
114.217285
 20
0.003906
 10
103.089844
 20
0.003906
 10
102.017578
 20
12.322266
 42
0.140643
 10
92.601074
 20
34.855835
 42
0.235371
 10
0.0
 20
81.003235
  0
LWPOLYLINE
  5
30
100
AcDbEntity
  8
LAYER47
370
    25
390
0
  6
Continuous
 62
    92
100
AcDbPolyline
 90
        7
 70
     0
 10
0.0
 20
91.003906
 42
0.234761
 10
-100.410645
 20
41.109314
 42
0.162884
 10
-114.217285
 20
0.003906
 10
-103.089844
 20
0.003906
 10
-102.017578
 20
12.322266
 42
-0.140643
 10
-92.601563
 20
34.855835
 42
-0.235371
 10
0.0
 20
81.003235
  0
LWPOLYLINE
  5
31
100
AcDbEntity
  8
LAYER47
370
    13
390
0
  6
Continuous
 62
   213
100
AcDbPolyline
 90
        5
 70
     0
 10
-103.089844
 20
0.003906
 10
-98.0
 20
0.0
 10
-95.308594
 20
10.610352
 42
-0.24477
 10
-18.756836
 20
71.475403
 10
-16.511719
 20
79.822021
  0
LWPOLYLINE
  5
32
100
AcDbEntity
  8
LAYER47
370
    13
390
0
  6
Continuous
 62
     9
100
AcDbPolyline
 90
        5
 70
     0
 10
-103.089844
 20
0.003906
 10
-98.0
 20
0.0
 10
-95.308594
 20
10.610352
 42
-0.24477
 10
-18.756836
 20
71.475403
 10
-16.511719
 20
79.822021
  0
LWPOLYLINE
  5
33
100
AcDbEntity
  8
LAYER47
370
    13
390
0
  6
Continuous
 62
    12
100
AcDbPolyline
 90
        5
 70
     0
 10
-103.089844
 20
0.003906
 10
-98.0
 20
0.0
 10
-95.308594
 20
10.610352
 42
-0.24477
 10
-18.756836
 20
71.475403
 10
-16.511719
 20
79.822021
  0
LWPOLYLINE
  5
34
100
AcDbEntity
  8
LAYER47
370
    13
390
0
  6
DOT
 62
   213
100
AcDbPolyline
 90
        5
 70
     0
 10
-103.089844
 20
0.003906
 10
-98.0
 20
0.0
 10
-95.308594
 20
10.610352
 42
-0.24477
 10
-18.756836
 20
71.475403
 10
-16.511719
 20
79.822021
  0
LWPOLYLINE
  5
35
100
AcDbEntity
  8
LAYER47
370
    13
390
0
  6
Continuous
 62
   213
100
AcDbPolyline
 90
        5
 70
     0
 10
103.089844
 20
0.003906
 10
98.0
 20
0.0
 10
95.308594
 20
10.610352
 42
0.24477
 10
18.756836
 20
71.475403
 10
16.511719
 20
79.822021
  0
LWPOLYLINE
  5
36
100
AcDbEntity
  8
LAYER47
370
    13
390
0
  6
Continuous
 62
     9
100
AcDbPolyline
 90
        5
 70
     0
 10
103.089844
 20
0.003906
 10
98.0
 20
0.0
 10
95.308594
 20
10.610352
 42
0.24477
 10
18.756836
 20
71.475403
 10
16.511719
 20
79.822021
  0
LWPOLYLINE
  5
37
100
AcDbEntity
  8
LAYER47
370
    13
390
0
  6
Continuous
 62
    12
100
AcDbPolyline
 90
        5
 70
     0
 10
103.089844
 20
0.003906
 10
98.0
 20
0.0
 10
95.308594
 20
10.610352
 42
0.24477
 10
18.756836
 20
71.475403
 10
16.511719
 20
79.822021
  0
LWPOLYLINE
  5
38
100
AcDbEntity
  8
LAYER47
370
    13
390
0
  6
DOT
 62
   213
100
AcDbPolyline
 90
        5
 70
     0
 10
103.089844
 20
0.003906
 10
98.0
 20
0.0
 10
95.308594
 20
10.610352
 42
0.24477
 10
18.756836
 20
71.475403
 10
16.511719
 20
79.822021
  0
LWPOLYLINE
  5
39
100
AcDbEntity
  8
LAYER47
370
    13
390
0
  6
Continuous
 62
   213
100
AcDbPolyline
 90
        9
 70
     0
 10
-114.216797
 20
0.0
 10
-127.0
 20
0.0
 10
-127.0
 20
2.9375
 10
-127.0
 20
5.761353
 10
-126.519531
 20
13.417236
 42
-0.131663
 10
-112.32373
 20
52.454651
 42
-0.209488
 10
-24.503906
 20
105.960297
 42
0.213832
 10
-13.100098
 20
113.038147
 42
-0.249191
 10
0.0
 20
119.999146
  0
LWPOLYLINE
  5
3A
100
AcDbEntity
  8
LAYER47
370
    13
390
0
  6
Continuous
 62
     9
100
AcDbPolyline
 90
        9
 70
     0
 10
-114.216797
 20
0.0
 10
-127.0
 20
0.0
 10
-127.0
 20
2.9375
 10
-127.0
 20
5.761353
 10
-126.519531
 20
13.417236
 42
-0.131663
 10
-112.32373
 20
52.454651
 42
-0.209488
 10
-24.503906
 20
105.960297
 42
0.213832
 10
-13.100098
 20
113.038147
 42
-0.249191
 10
0.0
 20
119.999146
  0
LWPOLYLINE
  5
3B
100
AcDbEntity
  8
LAYER47
370
    13
390
0
  6
Continuous
 62
    12
100
AcDbPolyline
 90
        9
 70
     0
 10
-114.216797
 20
0.0
 10
-127.0
 20
0.0
 10
-127.0
 20
2.9375
 10
-127.0
 20
5.761353
 10
-126.519531
 20
13.417236
 42
-0.131663
 10
-112.32373
 20
52.454651
 42
-0.209488
 10
-24.503906
 20
105.960297
 42
0.213832
 10
-13.100098
 20
113.038147
 42
-0.249191
 10
0.0
 20
119.999146
  0
LWPOLYLINE
  5
3C
100
AcDbEntity
  8
LAYER47
370
    13
390
0
  6
DOT
 62
   213
100
AcDbPolyline
 90
        9
 70
     0
 10
-114.216797
 20
0.0
 10
-127.0
 20
0.0
 10
-127.0
 20
2.9375
 10
-127.0
 20
5.761353
 10
-126.519531
 20
13.417236
 42
-0.131663
 10
-112.32373
 20
52.454651
 42
-0.209488
 10
-24.503906
 20
105.960297
 42
0.213832
 10
-13.100098
 20
113.038147
 42
-0.249191
 10
0.0
 20
119.999146
  0
LWPOLYLINE
  5
3D
100
AcDbEntity
  8
LAYER47
370
    13
390
0
  6
Continuous
 62
   213
100
AcDbPolyline
 90
        9
 70
     0
 10
114.216797
 20
0.0
 10
127.0
 20
0.0
 10
127.0
 20
2.9375
 10
127.0
 20
5.761353
 10
126.519531
 20
13.417236
 42
0.131663
 10
112.32373
 20
52.454651
 42
0.209488
 10
24.503906
 20
105.960297
 42
-0.213832
 10
13.098633
 20
113.039978
 42
0.249155
 10
0.0
 20
119.999146
  0
LWPOLYLINE
  5
3E
100
AcDbEntity
  8
LAYER47
370
    13
390
0
  6
Continuous
 62
     9
100
AcDbPolyline
 90
        9
 70
     0
 10
114.216797
 20
0.0
 10
127.0
 20
0.0
 10
127.0
 20
2.9375
 10
127.0
 20
5.761353
 10
126.519531
 20
13.417236
 42
0.131663
 10
112.32373
 20
52.454651
 42
0.209488
 10
24.503906
 20
105.960297
 42
-0.213832
 10
13.098633
 20
113.039978
 42
0.249155
 10
0.0
 20
119.999146
  0
LWPOLYLINE
  5
3F
100
AcDbEntity
  8
LAYER47
370
    13
390
0
  6
Continuous
 62
    12
100
AcDbPolyline
 90
        9
 70
     0
 10
114.216797
 20
0.0
 10
127.0
 20
0.0
 10
127.0
 20
2.9375
 10
127.0
 20
5.761353
 10
126.519531
 20
13.417236
 42
0.131663
 10
112.32373
 20
52.454651
 42
0.209488
 10
24.503906
 20
105.960297
 42
-0.213832
 10
13.098633
 20
113.039978
 42
0.249155
 10
0.0
 20
119.999146
  0
LWPOLYLINE
  5
40
100
AcDbEntity
  8
LAYER47
370
    13
390
0
  6
DOT
 62
   213
100
AcDbPolyline
 90
        9
 70
     0
 10
114.216797
 20
0.0
 10
127.0
 20
0.0
 10
127.0
 20
2.9375
 10
127.0
 20
5.761353
 10
126.519531
 20
13.417236
 42
0.131663
 10
112.32373
 20
52.454651
 42
0.209488
 10
24.503906
 20
105.960297
 42
-0.213832
 10
13.098633
 20
113.039978
 42
0.249155
 10
0.0
 20
119.999146
  0
ENDBLK
  5
41
100
AcDbEntity
  8
0
390
0
100
AcDbBlockEnd
  0
BLOCK
  5
44
100
AcDbEntity
  8
0
390
0
100
AcDbBlockBegin
  2
D47ZB1NK_A1_0
 70
     0
 10
0.0
 20
0.0
 30
0.0
  3
D47ZB1NK_A1_0
  1

  0
LWPOLYLINE
  5
45
100
AcDbEntity
  8
LAYER47
370
    18
390
0
  6
DASHED
 62
     7
100
AcDbPolyline
 90
        4
 70
     0
 10
0.0
 20
89.890625
 10
0.0
 20
10.553223
 42
-0.244098
 10
-11.045898
 20
10.553223
 10
-11.045898
 20
89.543945
  0
LWPOLYLINE
  5
46
100
AcDbEntity
  8
LAYER47
370
    18
390
0
  6
DASHED
 62
     7
100
AcDbPolyline
 90
        4
 70
     0
 10
-26.694336
 20
89.052002
 10
-26.694336
 20
9.714844
 42
-0.244098
 10
-37.740234
 20
9.714844
 10
-37.740234
 20
88.705078
  0
LWPOLYLINE
  5
47
100
AcDbEntity
  8
LAYER47
370
    13
390
0
  6
Continuous
 62
   213
100
AcDbPolyline
 90
        4
 70
     0
 10
316.359375
 20
78.242676
 10
316.359375
 20
13.807617
 10
308.996094
 20
13.807617
 10
308.996094
 20
78.242676
  0
LWPOLYLINE
  5
48
100
AcDbEntity
  8
LAYER47
370
    13
390
0
  6
Continuous
 62
     9
100
AcDbPolyline
 90
        4
 70
     0
 10
316.359375
 20
78.242676
 10
316.359375
 20
13.807617
 10
308.996094
 20
13.807617
 10
308.996094
 20
78.242676
  0
LWPOLYLINE
  5
49
100
AcDbEntity
  8
LAYER47
370
    13
390
0
  6
Continuous
 62
    12
100
AcDbPolyline
 90
        4
 70
     0
 10
316.359375
 20
78.242676
 10
316.359375
 20
13.807617
 10
308.996094
 20
13.807617
 10
308.996094
 20
78.242676
  0
LWPOLYLINE
  5
4A
100
AcDbEntity
  8
LAYER47
370
    13
390
0
  6
DOT
 62
   213
100
AcDbPolyline
 90
        4
 70
     0
 10
316.359375
 20
78.242676
 10
316.359375
 20
13.807617
 10
308.996094
 20
13.807617
 10
308.996094
 20
78.242676
  0
LWPOLYLINE
  5
4B
100
AcDbEntity
  8
LAYER47
370
    13
390
0
  6
Continuous
 62
   213
100
AcDbPolyline
 90
        4
 70
     0
 10
187.489258
 20
78.234375
 10
187.489258
 20
13.807617
 10
180.125
 20
13.807617
 10
180.128906
 20
78.242676
  0
LWPOLYLINE
  5
4C
100
AcDbEntity
  8
LAYER47
370
    13
390
0
  6
Continuous
 62
     9
100
AcDbPolyline
 90
        4
 70
     0
 10
187.489258
 20
78.234375
 10
187.489258
 20
13.807617
 10
180.125
 20
13.807617
 10
180.128906
 20
78.242676
  0
LWPOLYLINE
  5
4D
100
AcDbEntity
  8
LAYER47
370
    13
390
0
  6
Continuous
 62
    12
100
AcDbPolyline
 90
        4
 70
     0
 10
187.489258
 20
78.234375
 10
187.489258
 20
13.807617
 10
180.125
 20
13.807617
 10
180.128906
 20
78.242676
  0
LWPOLYLINE
  5
4E
100
AcDbEntity
  8
LAYER47
370
    13
390
0
  6
DOT
 62
   213
100
AcDbPolyline
 90
        4
 70
     0
 10
187.489258
 20
78.234375
 10
187.489258
 20
13.807617
 10
180.125
 20
13.807617
 10
180.128906
 20
78.242676
  0
LWPOLYLINE
  5
4F
100
AcDbEntity
  8
LAYER47
370
    13
390
0
  6
Continuous
 62
   213
100
AcDbPolyline
 90
        4
 70
     0
 10
49.414063
 20
78.242676
 10
49.414063
 20
13.807617
 10
42.049805
 20
13.807617
 10
42.049805
 20
78.242676
  0
LWPOLYLINE
  5
50
100
AcDbEntity
  8
LAYER47
370
    13
390
0
  6
Continuous
 62
     9
100
AcDbPolyline
 90
        4
 70
     0
 10
49.414063
 20
78.242676
 10
49.414063
 20
13.807617
 10
42.049805
 20
13.807617
 10
42.049805
 20
78.242676
  0
LWPOLYLINE
  5
51
100
AcDbEntity
  8
LAYER47
370
    13
390
0
  6
Continuous
 62
    12
100
AcDbPolyline
 90
        4
 70
     0
 10
49.414063
 20
78.242676
 10
49.414063
 20
13.807617
 10
42.049805
 20
13.807617
 10
42.049805
 20
78.242676
  0
LWPOLYLINE
  5
52
100
AcDbEntity
  8
LAYER47
370
    13
390
0
  6
DOT
 62
   213
100
AcDbPolyline
 90
        4
 70
     0
 10
49.414063
 20
78.242676
 10
49.414063
 20
13.807617
 10
42.049805
 20
13.807617
 10
42.049805
 20
78.242676
  0
LWPOLYLINE
  5
53
100
AcDbEntity
  8
LAYER47
370
    13
390
0
  6
Continuous
 62
   213
100
AcDbPolyline
 90
        8
 70
     0
 10
0.0
 20
89.890869
 10
81.631836
 20
92.493164
 10
380.794922
 20
118.000244
 10
384.010742
 20
118.000244
 42
-0.388879
 10
388.595703
 20
113.798828
 10
390.0
 20
97.573242
 10
390.0
 20
0.0
 10
0.0
 20
0.0
  0
LWPOLYLINE
  5
54
100
AcDbEntity
  8
LAYER47
370
    13
390
0
  6
Continuous
 62
     9
100
AcDbPolyline
 90
        8
 70
     0
 10
0.0
 20
89.890869
 10
81.631836
 20
92.493164
 10
380.794922
 20
118.000244
 10
384.010742
 20
118.000244
 42
-0.388879
 10
388.595703
 20
113.798828
 10
390.0
 20
97.573242
 10
390.0
 20
0.0
 10
0.0
 20
0.0
  0
LWPOLYLINE
  5
55
100
AcDbEntity
  8
LAYER47
370
    13
390
0
  6
Continuous
 62
    12
100
AcDbPolyline
 90
        8
 70
     0
 10
0.0
 20
89.890869
 10
81.631836
 20
92.493164
 10
380.794922
 20
118.000244
 10
384.010742
 20
118.000244
 42
-0.388879
 10
388.595703
 20
113.798828
 10
390.0
 20
97.573242
 10
390.0
 20
0.0
 10
0.0
 20
0.0
  0
LWPOLYLINE
  5
56
100
AcDbEntity
  8
LAYER47
370
    13
390
0
  6
DOT
 62
   213
100
AcDbPolyline
 90
        8
 70
     0
 10
0.0
 20
89.890869
 10
81.631836
 20
92.493164
 10
380.794922
 20
118.000244
 10
384.010742
 20
118.000244
 42
-0.388879
 10
388.595703
 20
113.798828
 10
390.0
 20
97.573242
 10
390.0
 20
0.0
 10
0.0
 20
0.0
  0
LWPOLYLINE
  5
57
100
AcDbEntity
  8
LAYER47
370
    18
390
0
  6
DASHED
 62
     7
100
AcDbPolyline
 90
        3
 70
     0
 10
0.0
 20
0.0
 10
-50.0
 20
0.0
 10
-50.0
 20
78.0
  0
LWPOLYLINE
  5
58
100
AcDbEntity
  8
LAYER47
370
    25
390
0
  6
Continuous
 62
    92
100
AcDbPolyline
 90
       34
 70
     1
 10
-50.0
 20
78.0
 10
-50.0
 20
81.00415
 10
-50.0
 20
83.765869
 10
-49.185547
 20
88.383545
 10
-37.740234
 20
88.705322
 42
0.499777
 10
-26.694336
 20
89.052307
 10
-11.045898
 20
89.543945
 42
0.499753
 10
0.0
 20
89.891022
 10
81.631836
 20
92.493164
 10
380.794922
 20
118.000244
 10
384.010742
 20
118.000244
 42
-0.388879
 10
388.595703
 20
113.798828
 10
390.0
 20
97.573242
 10
390.0
 20
91.0
 10
380.410156
 20
91.0
 10
379.366211
 20
103.111328
 42
0.413404
 10
374.393555
 20
107.296539
 10
332.591797
 20
103.581055
 42
0.316067
 10
320.419922
 20
93.396637
 10
316.359375
 20
78.242676
 10
308.996094
 20
78.242676
 10
305.870117
 20
89.906006
 42
0.36318
 10
291.368164
 20
100.090912
 10
200.734375
 20
92.41626
 42
0.303518
 10
188.739258
 20
82.838318
 10
187.489258
 20
78.234375
 10
180.128906
 20
78.242676
 10
179.863281
 20
79.236328
 42
0.363179
 10
165.361328
 20
89.420776
 10
82.486328
 20
82.403809
 10
58.038086
 20
81.621582
 42
0.172698
 10
49.414063
 20
78.242737
 10
42.049805
 20
78.242676
 42
0.165767
 10
33.530273
 20
80.851257
  0
ENDBLK
  5
59
100
AcDbEntity
  8
0
390
0
100
AcDbBlockEnd
  0
BLOCK
  5
5C
100
AcDbEntity
  8
0
390
0
100
AcDbBlockBegin
  2
D47ZB2NK_A1_0
 70
     0
 10
0.0
 20
0.0
 30
0.0
  3
D47ZB2NK_A1_0
  1

  0
LWPOLYLINE
  5
5D
100
AcDbEntity
  8
LAYER47
370
    18
390
0
  6
DASHED
 62
     7
100
AcDbPolyline
 90
        4
 70
     0
 10
0.0
 20
89.890625
 10
0.0
 20
10.553711
 42
-0.244098
 10
-11.045898
 20
10.552917
 10
-11.044922
 20
89.543945
  0
LWPOLYLINE
  5
5E
100
AcDbEntity
  8
LAYER47
370
    18
390
0
  6
DASHED
 62
     7
100
AcDbPolyline
 90
        4
 70
     0
 10
-26.693359
 20
89.052246
 10
-26.693359
 20
9.714844
 42
-0.244098
 10
-37.740234
 20
9.714844
 10
-37.740234
 20
88.705078
  0
LWPOLYLINE
  5
5F
100
AcDbEntity
  8
LAYER47
370
    13
390
0
  6
Continuous
 62
   213
100
AcDbPolyline
 90
        4
 70
     0
 10
316.359375
 20
78.242676
 10
316.359375
 20
13.807617
 10
308.996094
 20
13.807617
 10
308.996094
 20
78.242676
  0
LWPOLYLINE
  5
60
100
AcDbEntity
  8
LAYER47
370
    13
390
0
  6
Continuous
 62
     9
100
AcDbPolyline
 90
        4
 70
     0
 10
316.359375
 20
78.242676
 10
316.359375
 20
13.807617
 10
308.996094
 20
13.807617
 10
308.996094
 20
78.242676
  0
LWPOLYLINE
  5
61
100
AcDbEntity
  8
LAYER47
370
    13
390
0
  6
Continuous
 62
    12
100
AcDbPolyline
 90
        4
 70
     0
 10
316.359375
 20
78.242676
 10
316.359375
 20
13.807617
 10
308.996094
 20
13.807617
 10
308.996094
 20
78.242676
  0
LWPOLYLINE
  5
62
100
AcDbEntity
  8
LAYER47
370
    13
390
0
  6
DOT
 62
   213
100
AcDbPolyline
 90
        4
 70
     0
 10
316.359375
 20
78.242676
 10
316.359375
 20
13.807617
 10
308.996094
 20
13.807617
 10
308.996094
 20
78.242676
  0
LWPOLYLINE
  5
63
100
AcDbEntity
  8
LAYER47
370
    13
390
0
  6
Continuous
 62
   213
100
AcDbPolyline
 90
        4
 70
     0
 10
187.490234
 20
78.234375
 10
187.490234
 20
13.807617
 10
180.125
 20
13.807617
 10
180.128906
 20
78.242676
  0
LWPOLYLINE
  5
64
100
AcDbEntity
  8
LAYER47
370
    13
390
0
  6
Continuous
 62
     9
100
AcDbPolyline
 90
        4
 70
     0
 10
187.490234
 20
78.234375
 10
187.490234
 20
13.807617
 10
180.125
 20
13.807617
 10
180.128906
 20
78.242676
  0
LWPOLYLINE
  5
65
100
AcDbEntity
  8
LAYER47
370
    13
390
0
  6
Continuous
 62
    12
100
AcDbPolyline
 90
        4
 70
     0
 10
187.490234
 20
78.234375
 10
187.490234
 20
13.807617
 10
180.125
 20
13.807617
 10
180.128906
 20
78.242676
  0
LWPOLYLINE
  5
66
100
AcDbEntity
  8
LAYER47
370
    13
390
0
  6
DOT
 62
   213
100
AcDbPolyline
 90
        4
 70
     0
 10
187.490234
 20
78.234375
 10
187.490234
 20
13.807617
 10
180.125
 20
13.807617
 10
180.128906
 20
78.242676
  0
LWPOLYLINE
  5
67
100
AcDbEntity
  8
LAYER47
370
    13
390
0
  6
Continuous
 62
   213
100
AcDbPolyline
 90
        4
 70
     0
 10
49.414063
 20
78.242676
 10
49.414063
 20
13.807617
 10
42.050781
 20
13.807617
 10
42.050781
 20
78.242676
  0
LWPOLYLINE
  5
68
100
AcDbEntity
  8
LAYER47
370
    13
390
0
  6
Continuous
 62
     9
100
AcDbPolyline
 90
        4
 70
     0
 10
49.414063
 20
78.242676
 10
49.414063
 20
13.807617
 10
42.050781
 20
13.807617
 10
42.050781
 20
78.242676
  0
LWPOLYLINE
  5
69
100
AcDbEntity
  8
LAYER47
370
    13
390
0
  6
Continuous
 62
    12
100
AcDbPolyline
 90
        4
 70
     0
 10
49.414063
 20
78.242676
 10
49.414063
 20
13.807617
 10
42.050781
 20
13.807617
 10
42.050781
 20
78.242676
  0
LWPOLYLINE
  5
6A
100
AcDbEntity
  8
LAYER47
370
    13
390
0
  6
DOT
 62
   213
100
AcDbPolyline
 90
        4
 70
     0
 10
49.414063
 20
78.242676
 10
49.414063
 20
13.807617
 10
42.050781
 20
13.807617
 10
42.050781
 20
78.242676
  0
LWPOLYLINE
  5
6B
100
AcDbEntity
  8
LAYER47
370
    13
390
0
  6
Continuous
 62
   213
100
AcDbPolyline
 90
        8
 70
     0
 10
0.0
 20
89.890625
 10
81.630859
 20
92.493164
 10
380.794922
 20
118.0
 10
384.011719
 20
118.0
 42
-0.388872
 10
388.59668
 20
113.79892
 10
390.0
 20
97.573242
 10
390.0
 20
0.0
 10
0.0
 20
0.0
  0
LWPOLYLINE
  5
6C
100
AcDbEntity
  8
LAYER47
370
    13
390
0
  6
Continuous
 62
     9
100
AcDbPolyline
 90
        8
 70
     0
 10
0.0
 20
89.890625
 10
81.630859
 20
92.493164
 10
380.794922
 20
118.0
 10
384.011719
 20
118.0
 42
-0.388872
 10
388.59668
 20
113.79892
 10
390.0
 20
97.573242
 10
390.0
 20
0.0
 10
0.0
 20
0.0
  0
LWPOLYLINE
  5
6D
100
AcDbEntity
  8
LAYER47
370
    13
390
0
  6
Continuous
 62
    12
100
AcDbPolyline
 90
        8
 70
     0
 10
0.0
 20
89.890625
 10
81.630859
 20
92.493164
 10
380.794922
 20
118.0
 10
384.011719
 20
118.0
 42
-0.388872
 10
388.59668
 20
113.79892
 10
390.0
 20
97.573242
 10
390.0
 20
0.0
 10
0.0
 20
0.0
  0
LWPOLYLINE
  5
6E
100
AcDbEntity
  8
LAYER47
370
    13
390
0
  6
DOT
 62
   213
100
AcDbPolyline
 90
        8
 70
     0
 10
0.0
 20
89.890625
 10
81.630859
 20
92.493164
 10
380.794922
 20
118.0
 10
384.011719
 20
118.0
 42
-0.388872
 10
388.59668
 20
113.79892
 10
390.0
 20
97.573242
 10
390.0
 20
0.0
 10
0.0
 20
0.0
  0
LWPOLYLINE
  5
6F
100
AcDbEntity
  8
LAYER47
370
    18
390
0
  6
DASHED
 62
     7
100
AcDbPolyline
 90
        3
 70
     0
 10
0.0
 20
0.0
 10
-50.0
 20
0.0
 10
-50.0
 20
78.0
  0
LWPOLYLINE
  5
70
100
AcDbEntity
  8
LAYER47
370
    25
390
0
  6
Continuous
 62
    92
100
AcDbPolyline
 90
       37
 70
     1
 10
-50.0
 20
78.0
 10
-50.0
 20
81.003906
 10
-50.0
 20
83.765625
 10
-49.185547
 20
88.383789
 10
-37.740234
 20
88.705078
 42
0.499764
 10
-26.694336
 20
89.052765
 10
-11.044922
 20
89.543945
 42
0.499753
 10
0.0
 20
89.890411
 10
81.630859
 20
92.493164
 10
380.794922
 20
118.0
 10
384.011719
 20
118.0
 42
-0.388872
 10
388.59668
 20
113.79892
 10
390.0
 20
97.573242
 10
390.0
 20
92.015137
 10
385.746094
 20
92.015137
 42
0.399006
 10
380.751953
 20
87.275879
 10
376.193359
 20
0.0
 10
366.986328
 20
0.0
 10
361.728516
 20
100.327148
 42
0.423648
 10
355.748047
 20
105.542145
 10
332.591797
 20
103.581055
 42
0.316071
 10
320.419922
 20
93.396271
 10
316.359375
 20
78.242676
 10
308.996094
 20
78.242676
 10
305.871094
 20
89.90625
 42
0.36318
 10
291.369141
 20
100.09137
 10
200.734375
 20
92.416016
 42
0.303521
 10
188.739258
 20
82.838623
 10
187.490234
 20
78.234375
 10
180.128906
 20
78.242676
 10
179.863281
 20
79.236328
 42
0.363179
 10
165.361328
 20
89.421814
 10
82.486328
 20
82.403809
 10
58.037109
 20
81.621582
 42
0.172698
 10
49.413086
 20
78.242981
 10
42.050781
 20
78.242676
 42
0.165767
 10
33.529297
 20
80.852417
  0
ENDBLK
  5
71
100
AcDbEntity
  8
0
390
0
100
AcDbBlockEnd
  0
BLOCK
  5
74
100
AcDbEntity
  8
0
390
0
100
AcDbBlockBegin
  2
A47ZBANK_A1_0
 70
     0
 10
0.0
 20
0.0
 30
0.0
  3
A47ZBANK_A1_0
  1

  0
LWPOLYLINE
  5
75
100
AcDbEntity
  8
LAYER47
370
    13
390
0
  6
Continuous
 62
   213
100
AcDbPolyline
 90
        9
 70
     0
 10
0.0
 20
0.0
 10
-124.702148
 20
-0.000488
 10
-125.188477
 20
2.937256
 10
-125.188477
 20
5.69873
 10
-124.526367
 20
13.267822
 42
-0.131582
 10
-110.686523
 20
51.308838
 42
-0.20949
 10
-24.236328
 20
103.978912
 42
0.213825
 10
-11.442383
 20
111.920044
 42
-0.249176
 10
0.0
 20
117.999786
  0
LWPOLYLINE
  5
76
100
AcDbEntity
  8
LAYER47
370
    13
390
0
  6
Continuous
 62
     9
100
AcDbPolyline
 90
        9
 70
     0
 10
0.0
 20
0.0
 10
-124.702148
 20
-0.000488
 10
-125.188477
 20
2.937256
 10
-125.188477
 20
5.69873
 10
-124.526367
 20
13.267822
 42
-0.131582
 10
-110.686523
 20
51.308838
 42
-0.20949
 10
-24.236328
 20
103.978912
 42
0.213825
 10
-11.442383
 20
111.920044
 42
-0.249176
 10
0.0
 20
117.999786
  0
LWPOLYLINE
  5
77
100
AcDbEntity
  8
LAYER47
370
    13
390
0
  6
Continuous
 62
    12
100
AcDbPolyline
 90
        9
 70
     0
 10
0.0
 20
0.0
 10
-124.702148
 20
-0.000488
 10
-125.188477
 20
2.937256
 10
-125.188477
 20
5.69873
 10
-124.526367
 20
13.267822
 42
-0.131582
 10
-110.686523
 20
51.308838
 42
-0.20949
 10
-24.236328
 20
103.978912
 42
0.213825
 10
-11.442383
 20
111.920044
 42
-0.249176
 10
0.0
 20
117.999786
  0
LWPOLYLINE
  5
78
100
AcDbEntity
  8
LAYER47
370
    13
390
0
  6
DOT
 62
   213
100
AcDbPolyline
 90
        9
 70
     0
 10
0.0
 20
0.0
 10
-124.702148
 20
-0.000488
 10
-125.188477
 20
2.937256
 10
-125.188477
 20
5.69873
 10
-124.526367
 20
13.267822
 42
-0.131582
 10
-110.686523
 20
51.308838
 42
-0.20949
 10
-24.236328
 20
103.978912
 42
0.213825
 10
-11.442383
 20
111.920044
 42
-0.249176
 10
0.0
 20
117.999786
  0
LWPOLYLINE
  5
79
100
AcDbEntity
  8
LAYER47
370
    18
390
0
  6
DASHED
 62
     7
100
AcDbPolyline
 90
        3
 70
     0
 10
-114.217773
 20
0.003906
 42
-0.162884
 10
-100.411133
 20
41.108826
 42
-0.234761
 10
0.0
 20
91.003998
  0
LWPOLYLINE
  5
7A
100
AcDbEntity
  8
LAYER47
370
    13
390
0
  6
Continuous
 62
   213
100
AcDbPolyline
 90
        9
 70
     0
 10
0.0
 20
0.0
 10
124.701172
 20
-0.000488
 10
125.188477
 20
2.937256
 10
125.188477
 20
5.69873
 10
124.525391
 20
13.267822
 42
0.131582
 10
110.685547
 20
51.308838
 42
0.20949
 10
24.236328
 20
103.978912
 42
-0.213825
 10
11.442383
 20
111.920044
 42
0.249176
 10
0.0
 20
117.999786
  0
LWPOLYLINE
  5
7B
100
AcDbEntity
  8
LAYER47
370
    13
390
0
  6
Continuous
 62
     9
100
AcDbPolyline
 90
        9
 70
     0
 10
0.0
 20
0.0
 10
124.701172
 20
-0.000488
 10
125.188477
 20
2.937256
 10
125.188477
 20
5.69873
 10
124.525391
 20
13.267822
 42
0.131582
 10
110.685547
 20
51.308838
 42
0.20949
 10
24.236328
 20
103.978912
 42
-0.213825
 10
11.442383
 20
111.920044
 42
0.249176
 10
0.0
 20
117.999786
  0
LWPOLYLINE
  5
7C
100
AcDbEntity
  8
LAYER47
370
    13
390
0
  6
Continuous
 62
    12
100
AcDbPolyline
 90
        9
 70
     0
 10
0.0
 20
0.0
 10
124.701172
 20
-0.000488
 10
125.188477
 20
2.937256
 10
125.188477
 20
5.69873
 10
124.525391
 20
13.267822
 42
0.131582
 10
110.685547
 20
51.308838
 42
0.20949
 10
24.236328
 20
103.978912
 42
-0.213825
 10
11.442383
 20
111.920044
 42
0.249176
 10
0.0
 20
117.999786
  0
LWPOLYLINE
  5
7D
100
AcDbEntity
  8
LAYER47
370
    13
390
0
  6
DOT
 62
   213
100
AcDbPolyline
 90
        9
 70
     0
 10
0.0
 20
0.0
 10
124.701172
 20
-0.000488
 10
125.188477
 20
2.937256
 10
125.188477
 20
5.69873
 10
124.525391
 20
13.267822
 42
0.131582
 10
110.685547
 20
51.308838
 42
0.20949
 10
24.236328
 20
103.978912
 42
-0.213825
 10
11.442383
 20
111.920044
 42
0.249176
 10
0.0
 20
117.999786
  0
LWPOLYLINE
  5
7E
100
AcDbEntity
  8
LAYER47
370
    18
390
0
  6
DASHED
 62
     7
100
AcDbPolyline
 90
        3
 70
     0
 10
114.216797
 20
0.003906
 42
0.162884
 10
100.410156
 20
41.109009
 42
0.234761
 10
0.0
 20
91.00351
  0
ENDBLK
  5
7F
100
AcDbEntity
  8
0
390
0
100
AcDbBlockEnd
  0
BLOCK
  5
82
100
AcDbEntity
  8
0
390
0
100
AcDbBlockBegin
  2
D47ZB3NK_A1_0
 70
     0
 10
0.0
 20
0.0
 30
0.0
  3
D47ZB3NK_A1_0
  1

  0
LWPOLYLINE
  5
83
100
AcDbEntity
  8
LAYER47
370
    13
390
0
  6
Continuous
 62
   213
100
AcDbPolyline
 90
        8
 70
     1
 10
0.0
 20
0.0
 10
0.0
 20
89.952881
 10
81.631348
 20
92.493164
 10
380.794922
 20
118.000244
 10
384.010742
 20
118.000244
 42
-0.388872
 10
388.595703
 20
113.79895
 10
390.0
 20
97.573364
 10
390.0
 20
0.0
  0
LWPOLYLINE
  5
84
100
AcDbEntity
  8
LAYER47
370
    13
390
0
  6
Continuous
 62
     9
100
AcDbPolyline
 90
        8
 70
     1
 10
0.0
 20
0.0
 10
0.0
 20
89.952881
 10
81.631348
 20
92.493164
 10
380.794922
 20
118.000244
 10
384.010742
 20
118.000244
 42
-0.388872
 10
388.595703
 20
113.79895
 10
390.0
 20
97.573364
 10
390.0
 20
0.0
  0
LWPOLYLINE
  5
85
100
AcDbEntity
  8
LAYER47
370
    13
390
0
  6
Continuous
 62
    12
100
AcDbPolyline
 90
        8
 70
     1
 10
0.0
 20
0.0
 10
0.0
 20
89.952881
 10
81.631348
 20
92.493164
 10
380.794922
 20
118.000244
 10
384.010742
 20
118.000244
 42
-0.388872
 10
388.595703
 20
113.79895
 10
390.0
 20
97.573364
 10
390.0
 20
0.0
  0
LWPOLYLINE
  5
86
100
AcDbEntity
  8
LAYER47
370
    13
390
0
  6
DOT
 62
   213
100
AcDbPolyline
 90
        8
 70
     1
 10
0.0
 20
0.0
 10
0.0
 20
89.952881
 10
81.631348
 20
92.493164
 10
380.794922
 20
118.000244
 10
384.010742
 20
118.000244
 42
-0.388872
 10
388.595703
 20
113.79895
 10
390.0
 20
97.573364
 10
390.0
 20
0.0
  0
LWPOLYLINE
  5
87
100
AcDbEntity
  8
LAYER47
370
    13
390
0
  6
Continuous
 62
   213
100
AcDbPolyline
 90
        4
 70
     0
 10
316.359375
 20
78.242676
 10
316.359375
 20
13.807495
 10
308.996094
 20
13.807495
 10
308.996094
 20
78.242676
  0
LWPOLYLINE
  5
88
100
AcDbEntity
  8
LAYER47
370
    13
390
0
  6
Continuous
 62
     9
100
AcDbPolyline
 90
        4
 70
     0
 10
316.359375
 20
78.242676
 10
316.359375
 20
13.807495
 10
308.996094
 20
13.807495
 10
308.996094
 20
78.242676
  0
LWPOLYLINE
  5
89
100
AcDbEntity
  8
LAYER47
370
    13
390
0
  6
Continuous
 62
    12
100
AcDbPolyline
 90
        4
 70
     0
 10
316.359375
 20
78.242676
 10
316.359375
 20
13.807495
 10
308.996094
 20
13.807495
 10
308.996094
 20
78.242676
  0
LWPOLYLINE
  5
8A
100
AcDbEntity
  8
LAYER47
370
    13
390
0
  6
DOT
 62
   213
100
AcDbPolyline
 90
        4
 70
     0
 10
316.359375
 20
78.242676
 10
316.359375
 20
13.807495
 10
308.996094
 20
13.807495
 10
308.996094
 20
78.242676
  0
LWPOLYLINE
  5
8B
100
AcDbEntity
  8
LAYER47
370
    13
390
0
  6
Continuous
 62
   213
100
AcDbPolyline
 90
        4
 70
     0
 10
187.489258
 20
78.234497
 10
187.489258
 20
13.807495
 10
180.125488
 20
13.807495
 10
180.129395
 20
78.242676
  0
LWPOLYLINE
  5
8C
100
AcDbEntity
  8
LAYER47
370
    13
390
0
  6
Continuous
 62
     9
100
AcDbPolyline
 90
        4
 70
     0
 10
187.489258
 20
78.234497
 10
187.489258
 20
13.807495
 10
180.125488
 20
13.807495
 10
180.129395
 20
78.242676
  0
LWPOLYLINE
  5
8D
100
AcDbEntity
  8
LAYER47
370
    13
390
0
  6
Continuous
 62
    12
100
AcDbPolyline
 90
        4
 70
     0
 10
187.489258
 20
78.234497
 10
187.489258
 20
13.807495
 10
180.125488
 20
13.807495
 10
180.129395
 20
78.242676
  0
LWPOLYLINE
  5
8E
100
AcDbEntity
  8
LAYER47
370
    13
390
0
  6
DOT
 62
   213
100
AcDbPolyline
 90
        4
 70
     0
 10
187.489258
 20
78.234497
 10
187.489258
 20
13.807495
 10
180.125488
 20
13.807495
 10
180.129395
 20
78.242676
  0
LWPOLYLINE
  5
8F
100
AcDbEntity
  8
LAYER47
370
    13
390
0
  6
Continuous
 62
   213
100
AcDbPolyline
 90
        4
 70
     0
 10
49.414063
 20
78.242676
 10
49.414063
 20
13.807495
 10
42.049805
 20
13.807495
 10
42.049805
 20
78.242676
  0
LWPOLYLINE
  5
90
100
AcDbEntity
  8
LAYER47
370
    13
390
0
  6
Continuous
 62
     9
100
AcDbPolyline
 90
        4
 70
     0
 10
49.414063
 20
78.242676
 10
49.414063
 20
13.807495
 10
42.049805
 20
13.807495
 10
42.049805
 20
78.242676
  0
LWPOLYLINE
  5
91
100
AcDbEntity
  8
LAYER47
370
    13
390
0
  6
Continuous
 62
    12
100
AcDbPolyline
 90
        4
 70
     0
 10
49.414063
 20
78.242676
 10
49.414063
 20
13.807495
 10
42.049805
 20
13.807495
 10
42.049805
 20
78.242676
  0
LWPOLYLINE
  5
92
100
AcDbEntity
  8
LAYER47
370
    13
390
0
  6
DOT
 62
   213
100
AcDbPolyline
 90
        4
 70
     0
 10
49.414063
 20
78.242676
 10
49.414063
 20
13.807495
 10
42.049805
 20
13.807495
 10
42.049805
 20
78.242676
  0
LWPOLYLINE
  5
93
100
AcDbEntity
  8
LAYER47
370
    25
390
0
  6
Continuous
 62
    92
100
AcDbPolyline
 90
       34
 70
     1
 10
0.0
 20
79.698853
 10
0.0
 20
89.952881
 10
81.631348
 20
92.493164
 10
380.794922
 20
118.000244
 10
384.010742
 20
118.000244
 42
-0.388872
 10
388.595703
 20
113.79895
 10
390.0
 20
97.573364
 10
390.0
 20
91.0
 10
380.410156
 20
91.0
 10
379.366211
 20
103.11145
 42
0.413395
 10
374.393555
 20
107.29657
 10
332.591797
 20
103.580933
 42
0.316071
 10
320.419922
 20
93.396393
 10
316.359375
 20
78.242676
 10
308.996094
 20
78.242676
 10
305.870117
 20
89.906006
 42
0.36318
 10
291.368164
 20
100.090698
 10
200.733887
 20
92.41626
 42
0.303521
 10
188.739746
 20
82.838318
 10
187.489258
 20
78.234497
 10
180.129395
 20
78.242676
 10
179.862793
 20
79.23645
 42
0.363179
 10
165.36084
 20
89.420898
 10
82.48584
 20
82.403687
 10
58.037598
 20
81.62146
 42
0.172698
 10
49.414063
 20
78.242737
 10
42.049805
 20
78.242676
 42
0.165767
 10
33.529785
 20
80.851563
 10
31.742188
 20
80.851563
 42
0.398805
 10
26.749023
 20
76.115967
 10
22.719727
 20
0.0
 10
13.514648
 20
0.0
 10
9.631348
 20
75.197388
 42
0.414738
 10
4.371094
 20
79.932373
  0
ENDBLK
  5
94
100
AcDbEntity
  8
0
390
0
100
AcDbBlockEnd
  0
BLOCK
  5
97
100
AcDbEntity
  8
0
390
0
100
AcDbBlockBegin
  2
P47ZB1NK_A1_0
 70
     0
 10
0.0
 20
0.0
 30
0.0
  3
P47ZB1NK_A1_0
  1

  0
LWPOLYLINE
  5
98
100
AcDbEntity
  8
LAYER47
370
    13
390
0
  6
Continuous
 62
   213
100
AcDbPolyline
 90
        4
 70
     1
 10
-8.0
 20
114.949707
 10
382.0
 20
127.0
 10
382.0
 20
-127.0
 10
-8.0
 20
-114.949707
  0
LWPOLYLINE
  5
99
100
AcDbEntity
  8
LAYER47
370
    13
390
0
  6
Continuous
 62
     9
100
AcDbPolyline
 90
        4
 70
     1
 10
-8.0
 20
114.949707
 10
382.0
 20
127.0
 10
382.0
 20
-127.0
 10
-8.0
 20
-114.949707
  0
LWPOLYLINE
  5
9A
100
AcDbEntity
  8
LAYER47
370
    13
390
0
  6
Continuous
 62
    12
100
AcDbPolyline
 90
        4
 70
     1
 10
-8.0
 20
114.949707
 10
382.0
 20
127.0
 10
382.0
 20
-127.0
 10
-8.0
 20
-114.949707
  0
LWPOLYLINE
  5
9B
100
AcDbEntity
  8
LAYER47
370
    13
390
0
  6
DOT
 62
   213
100
AcDbPolyline
 90
        4
 70
     1
 10
-8.0
 20
114.949707
 10
382.0
 20
127.0
 10
382.0
 20
-127.0
 10
-8.0
 20
-114.949707
  0
LWPOLYLINE
  5
9C
100
AcDbEntity
  8
LAYER47
370
    18
390
0
  6
DASHED
 62
     7
100
AcDbPolyline
 90
       10
 70
     0
 10
-8.0
 20
-114.911743
 42
0.500341
 10
-19.044922
 20
-114.564941
 10
-34.693359
 20
-114.073975
 42
0.500387
 10
-45.742188
 20
-113.726257
 10
-56.785156
 20
-113.380615
 10
-56.785156
 20
113.380615
 10
-45.740234
 20
113.727539
 42
0.500395
 10
-34.695313
 20
114.075012
 10
-19.044922
 20
114.565186
 42
0.500354
 10
-8.0
 20
114.911865
  0
LWPOLYLINE
  5
9D
100
AcDbEntity
  8
LAYER47
370
    13
390
0
  6
Continuous
 62
   213
100
AcDbPolyline
 90
        6
 70
     0
 10
382.027344
 20
-15.648438
 10
81.134766
 20
-4.058594
 42
-0.182246
 10
74.488281
 20
-1.695313
 42
-0.498486
 10
74.488281
 20
1.695313
 42
-0.182243
 10
81.134766
 20
4.058594
 10
382.027344
 20
15.648682
  0
LWPOLYLINE
  5
9E
100
AcDbEntity
  8
LAYER47
370
    13
390
0
  6
Continuous
 62
     9
100
AcDbPolyline
 90
        6
 70
     0
 10
382.027344
 20
-15.648438
 10
81.134766
 20
-4.058594
 42
-0.182246
 10
74.488281
 20
-1.695313
 42
-0.498486
 10
74.488281
 20
1.695313
 42
-0.182243
 10
81.134766
 20
4.058594
 10
382.027344
 20
15.648682
  0
LWPOLYLINE
  5
9F
100
AcDbEntity
  8
LAYER47
370
    13
390
0
  6
Continuous
 62
    12
100
AcDbPolyline
 90
        6
 70
     0
 10
382.027344
 20
-15.648438
 10
81.134766
 20
-4.058594
 42
-0.182246
 10
74.488281
 20
-1.695313
 42
-0.498486
 10
74.488281
 20
1.695313
 42
-0.182243
 10
81.134766
 20
4.058594
 10
382.027344
 20
15.648682
  0
LWPOLYLINE
  5
A0
100
AcDbEntity
  8
LAYER47
370
    13
390
0
  6
DOT
 62
   213
100
AcDbPolyline
 90
        6
 70
     0
 10
382.027344
 20
-15.648438
 10
81.134766
 20
-4.058594
 42
-0.182246
 10
74.488281
 20
-1.695313
 42
-0.498486
 10
74.488281
 20
1.695313
 42
-0.182243
 10
81.134766
 20
4.058594
 10
382.027344
 20
15.648682
  0
LWPOLYLINE
  5
A1
100
AcDbEntity
  8
LAYER47
370
    18
390
0
  6
DASHED
 62
     7
100
AcDbPolyline
 90
        2
 70
     0
 10
-45.740234
 20
-113.727295
 10
-45.740234
 20
113.727539
  0
LWPOLYLINE
  5
A2
100
AcDbEntity
  8
LAYER47
370
    18
390
0
  6
DASHED
 62
     7
100
AcDbPolyline
 90
        2
 70
     0
 10
-34.693359
 20
-114.073975
 10
-34.693359
 20
114.073975
  0
LWPOLYLINE
  5
A3
100
AcDbEntity
  8
LAYER47
370
    18
390
0
  6
DASHED
 62
     7
100
AcDbPolyline
 90
        2
 70
     0
 10
-19.044922
 20
-114.564941
 10
-19.044922
 20
114.565186
  0
ENDBLK
  5
A4
100
AcDbEntity
  8
0
390
0
100
AcDbBlockEnd
  0
BLOCK
  5
A7
100
AcDbEntity
  8
0
390
0
100
AcDbBlockBegin
  2
P47ZB3NK_A1_0
 70
     0
 10
0.0
 20
0.0
 30
0.0
  3
P47ZB3NK_A1_0
  1

  0
LWPOLYLINE
  5
A8
100
AcDbEntity
  8
LAYER47
370
    13
390
0
  6
Continuous
 62
   213
100
AcDbPolyline
 90
        4
 70
     1
 10
0.0
 20
114.949707
 10
390.0
 20
127.0
 10
390.0
 20
-127.0
 10
0.0
 20
-114.949707
  0
LWPOLYLINE
  5
A9
100
AcDbEntity
  8
LAYER47
370
    13
390
0
  6
Continuous
 62
     9
100
AcDbPolyline
 90
        4
 70
     1
 10
0.0
 20
114.949707
 10
390.0
 20
127.0
 10
390.0
 20
-127.0
 10
0.0
 20
-114.949707
  0
LWPOLYLINE
  5
AA
100
AcDbEntity
  8
LAYER47
370
    13
390
0
  6
Continuous
 62
    12
100
AcDbPolyline
 90
        4
 70
     1
 10
0.0
 20
114.949707
 10
390.0
 20
127.0
 10
390.0
 20
-127.0
 10
0.0
 20
-114.949707
  0
LWPOLYLINE
  5
AB
100
AcDbEntity
  8
LAYER47
370
    13
390
0
  6
DOT
 62
   213
100
AcDbPolyline
 90
        4
 70
     1
 10
0.0
 20
114.949707
 10
390.0
 20
127.0
 10
390.0
 20
-127.0
 10
0.0
 20
-114.949707
  0
LWPOLYLINE
  5
AC
100
AcDbEntity
  8
LAYER47
370
    13
390
0
  6
Continuous
 62
   213
100
AcDbPolyline
 90
        6
 70
     0
 10
390.027344
 20
-15.648438
 10
89.133789
 20
-4.058594
 42
-0.182246
 10
82.48877
 20
-1.695557
 42
-0.498486
 10
82.48877
 20
1.695496
 42
-0.182243
 10
89.133789
 20
4.058594
 10
390.027344
 20
15.648682
  0
LWPOLYLINE
  5
AD
100
AcDbEntity
  8
LAYER47
370
    13
390
0
  6
Continuous
 62
     9
100
AcDbPolyline
 90
        6
 70
     0
 10
390.027344
 20
-15.648438
 10
89.133789
 20
-4.058594
 42
-0.182246
 10
82.48877
 20
-1.695557
 42
-0.498486
 10
82.48877
 20
1.695557
 42
-0.182243
 10
89.133789
 20
4.058594
 10
390.027344
 20
15.648682
  0
LWPOLYLINE
  5
AE
100
AcDbEntity
  8
LAYER47
370
    13
390
0
  6
Continuous
 62
    12
100
AcDbPolyline
 90
        6
 70
     0
 10
390.027344
 20
-15.648438
 10
89.133789
 20
-4.058594
 42
-0.182246
 10
82.48877
 20
-1.695557
 42
-0.498486
 10
82.48877
 20
1.695557
 42
-0.182243
 10
89.133789
 20
4.058594
 10
390.027344
 20
15.648682
  0
LWPOLYLINE
  5
AF
100
AcDbEntity
  8
LAYER47
370
    13
390
0
  6
DOT
 62
   213
100
AcDbPolyline
 90
        6
 70
     0
 10
390.027344
 20
-15.648438
 10
89.133789
 20
-4.058594
 42
-0.182246
 10
82.48877
 20
-1.695557
 42
-0.498486
 10
82.48877
 20
1.695557
 42
-0.182243
 10
89.133789
 20
4.058594
 10
390.027344
 20
15.648682
  0
ENDBLK
  5
B0
100
AcDbEntity
  8
0
390
0
100
AcDbBlockEnd
  0
BLOCK
  5
B3
100
AcDbEntity
  8
0
390
0
100
AcDbBlockBegin
  2
P47ZB2NK_A1_0
 70
     0
 10
0.0
 20
0.0
 30
0.0
  3
P47ZB2NK_A1_0
  1

  0
LWPOLYLINE
  5
B4
100
AcDbEntity
  8
LAYER47
370
    13
390
0
  6
Continuous
 62
   213
100
AcDbPolyline
 90
        4
 70
     1
 10
0.0
 20
114.949707
 10
390.0
 20
127.0
 10
390.0
 20
-127.0
 10
0.0
 20
-114.949707
  0
LWPOLYLINE
  5
B5
100
AcDbEntity
  8
LAYER47
370
    13
390
0
  6
Continuous
 62
     9
100
AcDbPolyline
 90
        4
 70
     1
 10
0.0
 20
114.949707
 10
390.0
 20
127.0
 10
390.0
 20
-127.0
 10
0.0
 20
-114.949707
  0
LWPOLYLINE
  5
B6
100
AcDbEntity
  8
LAYER47
370
    13
390
0
  6
Continuous
 62
    12
100
AcDbPolyline
 90
        4
 70
     1
 10
0.0
 20
114.949707
 10
390.0
 20
127.0
 10
390.0
 20
-127.0
 10
0.0
 20
-114.949707
  0
LWPOLYLINE
  5
B7
100
AcDbEntity
  8
LAYER47
370
    13
390
0
  6
DOT
 62
   213
100
AcDbPolyline
 90
        4
 70
     1
 10
0.0
 20
114.949707
 10
390.0
 20
127.0
 10
390.0
 20
-127.0
 10
0.0
 20
-114.949707
  0
LWPOLYLINE
  5
B8
100
AcDbEntity
  8
LAYER47
370
    18
390
0
  6
DASHED
 62
     7
100
AcDbPolyline
 90
       10
 70
     0
 10
0.0
 20
-114.911743
 42
0.500341
 10
-11.044922
 20
-114.564941
 10
-26.693359
 20
-114.073975
 42
0.500387
 10
-37.742188
 20
-113.726257
 10
-50.0
 20
-113.380615
 10
-50.0
 20
113.380615
 10
-37.740234
 20
113.727539
 42
0.500395
 10
-26.695313
 20
114.075012
 10
-11.044922
 20
114.565186
 42
0.500354
 10
0.0
 20
114.911865
  0
LWPOLYLINE
  5
B9
100
AcDbEntity
  8
LAYER47
370
    13
390
0
  6
Continuous
 62
   213
100
AcDbPolyline
 90
        6
 70
     0
 10
390.027344
 20
-15.648438
 10
89.134766
 20
-4.058594
 42
-0.182246
 10
82.488281
 20
-1.695313
 42
-0.498486
 10
82.488281
 20
1.695313
 42
-0.182243
 10
89.134766
 20
4.058594
 10
390.027344
 20
15.648682
  0
LWPOLYLINE
  5
BA
100
AcDbEntity
  8
LAYER47
370
    13
390
0
  6
Continuous
 62
     9
100
AcDbPolyline
 90
        6
 70
     0
 10
390.027344
 20
-15.648438
 10
89.134766
 20
-4.058594
 42
-0.182246
 10
82.488281
 20
-1.695313
 42
-0.498486
 10
82.488281
 20
1.695313
 42
-0.182243
 10
89.134766
 20
4.058594
 10
390.027344
 20
15.648682
  0
LWPOLYLINE
  5
BB
100
AcDbEntity
  8
LAYER47
370
    13
390
0
  6
Continuous
 62
    12
100
AcDbPolyline
 90
        6
 70
     0
 10
390.027344
 20
-15.648438
 10
89.134766
 20
-4.058594
 42
-0.182246
 10
82.488281
 20
-1.695313
 42
-0.498486
 10
82.488281
 20
1.695313
 42
-0.182243
 10
89.134766
 20
4.058594
 10
390.027344
 20
15.648682
  0
LWPOLYLINE
  5
BC
100
AcDbEntity
  8
LAYER47
370
    13
390
0
  6
DOT
 62
   213
100
AcDbPolyline
 90
        6
 70
     0
 10
390.027344
 20
-15.648438
 10
89.134766
 20
-4.058594
 42
-0.182246
 10
82.488281
 20
-1.695313
 42
-0.498486
 10
82.488281
 20
1.695313
 42
-0.182243
 10
89.134766
 20
4.058594
 10
390.027344
 20
15.648682
  0
LWPOLYLINE
  5
BD
100
AcDbEntity
  8
LAYER47
370
    18
390
0
  6
DASHED
 62
     7
100
AcDbPolyline
 90
        2
 70
     0
 10
-37.740234
 20
-113.727295
 10
-37.740234
 20
113.727539
  0
LWPOLYLINE
  5
BE
100
AcDbEntity
  8
LAYER47
370
    18
390
0
  6
DASHED
 62
     7
100
AcDbPolyline
 90
        2
 70
     0
 10
-26.693359
 20
-114.073975
 10
-26.693359
 20
114.073975
  0
LWPOLYLINE
  5
BF
100
AcDbEntity
  8
LAYER47
370
    18
390
0
  6
DASHED
 62
     7
100
AcDbPolyline
 90
        2
 70
     0
 10
-11.044922
 20
-114.564941
 10
-11.044922
 20
114.565186
  0
ENDBLK
  5
C0
100
AcDbEntity
  8
0
390
0
100
AcDbBlockEnd
  0
BLOCK
  5
C3
100
AcDbEntity
  8
0
390
0
100
AcDbBlockBegin
  2
A47ZB1NK_A1_0
 70
     0
 10
0.0
 20
0.0
 30
0.0
  3
A47ZB1NK_A1_0
  1

  0
LWPOLYLINE
  5
C4
100
AcDbEntity
  8
LAYER47
370
    13
390
0
  6
Continuous
 62
   213
100
AcDbPolyline
 90
        8
 70
     0
 10
0.0
 20
89.890625
 10
73.632813
 20
92.493164
 10
372.794922
 20
118.0
 10
376.011719
 20
118.0
 42
-0.388872
 10
380.59668
 20
113.79895
 10
382.0
 20
97.573242
 10
382.0
 20
0.0
 10
0.0
 20
0.0
  0
LWPOLYLINE
  5
C5
100
AcDbEntity
  8
LAYER47
370
    13
390
0
  6
Continuous
 62
     9
100
AcDbPolyline
 90
        8
 70
     0
 10
0.0
 20
89.890625
 10
73.632813
 20
92.493164
 10
372.794922
 20
118.0
 10
376.011719
 20
118.0
 42
-0.388872
 10
380.59668
 20
113.79895
 10
382.0
 20
97.573242
 10
382.0
 20
0.0
 10
0.0
 20
0.0
  0
LWPOLYLINE
  5
C6
100
AcDbEntity
  8
LAYER47
370
    13
390
0
  6
Continuous
 62
    12
100
AcDbPolyline
 90
        8
 70
     0
 10
0.0
 20
89.890625
 10
73.632813
 20
92.493164
 10
372.794922
 20
118.0
 10
376.011719
 20
118.0
 42
-0.388872
 10
380.59668
 20
113.79895
 10
382.0
 20
97.573242
 10
382.0
 20
0.0
 10
0.0
 20
0.0
  0
LWPOLYLINE
  5
C7
100
AcDbEntity
  8
LAYER47
370
    13
390
0
  6
DOT
 62
   213
100
AcDbPolyline
 90
        8
 70
     0
 10
0.0
 20
89.890625
 10
73.632813
 20
92.493164
 10
372.794922
 20
118.0
 10
376.011719
 20
118.0
 42
-0.388872
 10
380.59668
 20
113.79895
 10
382.0
 20
97.573242
 10
382.0
 20
0.0
 10
0.0
 20
0.0
  0
LWPOLYLINE
  5
C8
100
AcDbEntity
  8
LAYER47
370
    18
390
0
  6
DASHED
 62
     7
100
AcDbPolyline
 90
        4
 70
     0
 10
0.0
 20
0.0
 10
-58.0
 20
0.0
 10
-58.0
 20
88.296875
 10
0.0
 20
89.890625
  0
ENDBLK
  5
C9
100
AcDbEntity
  8
0
390
0
100
AcDbBlockEnd
  0
BLOCK
  5
CC
100
AcDbEntity
  8
0
390
0
100
AcDbBlockBegin
  2
A47ZB2NK_A1_0
 70
     0
 10
0.0
 20
0.0
 30
0.0
  3
A47ZB2NK_A1_0
  1

  0
LWPOLYLINE
  5
CD
100
AcDbEntity
  8
LAYER47
370
    13
390
0
  6
Continuous
 62
   213
100
AcDbPolyline
 90
        8
 70
     0
 10
0.0
 20
89.890625
 10
81.632813
 20
92.493164
 10
380.794922
 20
118.0
 10
384.011719
 20
118.0
 42
-0.388872
 10
388.59668
 20
113.79895
 10
390.0
 20
97.573242
 10
390.0
 20
0.0
 10
0.0
 20
0.0
  0
LWPOLYLINE
  5
CE
100
AcDbEntity
  8
LAYER47
370
    13
390
0
  6
Continuous
 62
     9
100
AcDbPolyline
 90
        8
 70
     0
 10
0.0
 20
89.890625
 10
81.632813
 20
92.493164
 10
380.794922
 20
118.0
 10
384.011719
 20
118.0
 42
-0.388872
 10
388.59668
 20
113.79895
 10
390.0
 20
97.573242
 10
390.0
 20
0.0
 10
0.0
 20
0.0
  0
LWPOLYLINE
  5
CF
100
AcDbEntity
  8
LAYER47
370
    13
390
0
  6
Continuous
 62
    12
100
AcDbPolyline
 90
        8
 70
     0
 10
0.0
 20
89.890625
 10
81.632813
 20
92.493164
 10
380.794922
 20
118.0
 10
384.011719
 20
118.0
 42
-0.388872
 10
388.59668
 20
113.79895
 10
390.0
 20
97.573242
 10
390.0
 20
0.0
 10
0.0
 20
0.0
  0
LWPOLYLINE
  5
D0
100
AcDbEntity
  8
LAYER47
370
    13
390
0
  6
DOT
 62
   213
100
AcDbPolyline
 90
        8
 70
     0
 10
0.0
 20
89.890625
 10
81.632813
 20
92.493164
 10
380.794922
 20
118.0
 10
384.011719
 20
118.0
 42
-0.388872
 10
388.59668
 20
113.79895
 10
390.0
 20
97.573242
 10
390.0
 20
0.0
 10
0.0
 20
0.0
  0
LWPOLYLINE
  5
D1
100
AcDbEntity
  8
LAYER47
370
    18
390
0
  6
DASHED
 62
     7
100
AcDbPolyline
 90
        4
 70
     0
 10
0.0
 20
0.0
 10
-50.0
 20
0.0
 10
-50.0
 20
88.296875
 10
0.0
 20
89.890625
  0
ENDBLK
  5
D2
100
AcDbEntity
  8
0
390
0
100
AcDbBlockEnd
  0
BLOCK
  5
D5
100
AcDbEntity
  8
0
390
0
100
AcDbBlockBegin
  2
A47ZB3NK_A1_0
 70
     0
 10
0.0
 20
0.0
 30
0.0
  3
A47ZB3NK_A1_0
  1

  0
LWPOLYLINE
  5
D6
100
AcDbEntity
  8
LAYER47
370
    13
390
0
  6
Continuous
 62
   213
100
AcDbPolyline
 90
        8
 70
     1
 10
0.0
 20
0.0
 10
0.0
 20
89.953125
 10
81.631836
 20
92.493164
 10
380.794922
 20
118.0
 10
384.010742
 20
118.0
 42
-0.388872
 10
388.595703
 20
113.798828
 10
390.0
 20
97.573242
 10
390.0
 20
0.0
  0
LWPOLYLINE
  5
D7
100
AcDbEntity
  8
LAYER47
370
    13
390
0
  6
Continuous
 62
     9
100
AcDbPolyline
 90
        8
 70
     1
 10
0.0
 20
0.0
 10
0.0
 20
89.953125
 10
81.631836
 20
92.493164
 10
380.794922
 20
118.0
 10
384.010742
 20
118.0
 42
-0.388872
 10
388.595703
 20
113.798828
 10
390.0
 20
97.573242
 10
390.0
 20
0.0
  0
LWPOLYLINE
  5
D8
100
AcDbEntity
  8
LAYER47
370
    13
390
0
  6
Continuous
 62
    12
100
AcDbPolyline
 90
        8
 70
     1
 10
0.0
 20
0.0
 10
0.0
 20
89.953125
 10
81.631836
 20
92.493164
 10
380.794922
 20
118.0
 10
384.010742
 20
118.0
 42
-0.388872
 10
388.595703
 20
113.798828
 10
390.0
 20
97.573242
 10
390.0
 20
0.0
  0
LWPOLYLINE
  5
D9
100
AcDbEntity
  8
LAYER47
370
    13
390
0
  6
DOT
 62
   213
100
AcDbPolyline
 90
        8
 70
     1
 10
0.0
 20
0.0
 10
0.0
 20
89.953125
 10
81.631836
 20
92.493164
 10
380.794922
 20
118.0
 10
384.010742
 20
118.0
 42
-0.388872
 10
388.595703
 20
113.798828
 10
390.0
 20
97.573242
 10
390.0
 20
0.0
  0
ENDBLK
  5
DA
100
AcDbEntity
  8
0
390
0
100
AcDbBlockEnd
  0
BLOCK
  5
DF
100
AcDbEntity
  8
0
390
0
100
AcDbBlockBegin
  2
DUMMY1NK_A1_0
 70
     0
 10
0.0
 20
0.0
 30
0.0
  3
DUMMY1NK_A1_0
  1

  0
LWPOLYLINE
  5
E0
100
AcDbEntity
  8
LAYER47
370
    25
390
0
  6
Continuous
 62
    92
100
AcDbPolyline
 90
        4
 70
     1
 10
-35.000059
 20
0.000043
 10
-35.000029
 20
24.999962
 10
-0.000056
 20
25.000005
 10
0.0
 20
0.0
  0
ENDBLK
  5
E1
100
AcDbEntity
  8
0
390
0
100
AcDbBlockEnd
  0
BLOCK
  5
ED
100
AcDbEntity
  8
0
390
0
100
AcDbBlockBegin
  2
D47CJANK_A1_0
 70
     0
 10
0.0
 20
0.0
 30
0.0
  3
D47CJANK_A1_0
  1

  0
LWPOLYLINE
  5
EE
100
AcDbEntity
  8
LAYER47
370
    13
390
0
  6
Continuous
 62
   213
100
AcDbPolyline
 90
        9
 70
     1
 10
37.999954
 20
27.554725
 10
33.140674
 20
-0.000029
 10
19.468697
 20
0.000043
 10
14.011772
 20
-15.000029
 10
2.812383
 20
-14.999885
 10
0.0
 20
0.0
 10
12.285196
 20
-0.000036
 10
15.624923
 20
9.187578
 10
31.316372
 20
9.187522
  0
LWPOLYLINE
  5
EF
100
AcDbEntity
  8
LAYER47
370
    13
390
0
  6
Continuous
 62
     9
100
AcDbPolyline
 90
        9
 70
     1
 10
37.999954
 20
27.554725
 10
33.140674
 20
-0.000029
 10
19.468697
 20
0.000043
 10
14.011772
 20
-15.000029
 10
2.812383
 20
-14.999885
 10
0.0
 20
0.0
 10
12.285196
 20
-0.000036
 10
15.624923
 20
9.187578
 10
31.316372
 20
9.187522
  0
LWPOLYLINE
  5
F0
100
AcDbEntity
  8
LAYER47
370
    13
390
0
  6
Continuous
 62
    12
100
AcDbPolyline
 90
        9
 70
     1
 10
37.999954
 20
27.554725
 10
33.140674
 20
-0.000029
 10
19.468697
 20
0.000043
 10
14.011772
 20
-15.000029
 10
2.812383
 20
-14.999885
 10
0.0
 20
0.0
 10
12.285196
 20
-0.000036
 10
15.624923
 20
9.187578
 10
31.316372
 20
9.187522
  0
LWPOLYLINE
  5
F1
100
AcDbEntity
  8
LAYER47
370
    13
390
0
  6
DOT
 62
   213
100
AcDbPolyline
 90
        9
 70
     1
 10
37.999954
 20
27.554725
 10
33.140674
 20
-0.000029
 10
19.468697
 20
0.000043
 10
14.011772
 20
-15.000029
 10
2.812383
 20
-14.999885
 10
0.0
 20
0.0
 10
12.285196
 20
-0.000036
 10
15.624923
 20
9.187578
 10
31.316372
 20
9.187522
  0
LWPOLYLINE
  5
F2
100
AcDbEntity
  8
LAYER47
370
    13
390
0
  6
Continuous
 62
   213
100
AcDbPolyline
 90
        4
 70
     1
 10
-345.351604
 20
6.089907
 10
-349.242195
 20
-8.074205
 10
-353.832143
 20
-8.074112
 10
-357.628946
 20
6.089849
  0
LWPOLYLINE
  5
F3
100
AcDbEntity
  8
LAYER47
370
    13
390
0
  6
Continuous
 62
     9
100
AcDbPolyline
 90
        4
 70
     1
 10
-345.351604
 20
6.089907
 10
-349.242195
 20
-8.074205
 10
-353.832143
 20
-8.074112
 10
-357.628946
 20
6.089849
  0
LWPOLYLINE
  5
F4
100
AcDbEntity
  8
LAYER47
370
    13
390
0
  6
Continuous
 62
    12
100
AcDbPolyline
 90
        4
 70
     1
 10
-345.351604
 20
6.089907
 10
-349.242195
 20
-8.074205
 10
-353.832143
 20
-8.074112
 10
-357.628946
 20
6.089849
  0
LWPOLYLINE
  5
F5
100
AcDbEntity
  8
LAYER47
370
    13
390
0
  6
DOT
 62
   213
100
AcDbPolyline
 90
        4
 70
     1
 10
-345.351604
 20
6.089907
 10
-349.242195
 20
-8.074205
 10
-353.832143
 20
-8.074112
 10
-357.628946
 20
6.089849
  0
LWPOLYLINE
  5
F6
100
AcDbEntity
  8
LAYER47
370
    13
390
0
  6
Continuous
 62
   213
100
AcDbPolyline
 90
        6
 70
     1
 10
-381.843778
 20
3.671926
 10
-386.746168
 20
-14.999939
 10
-397.546902
 20
-14.999988
 10
-400.19545
 20
-1.37881
 10
-390.894588
 20
-1.378895
 10
-389.015741
 20
3.671987
  0
LWPOLYLINE
  5
F7
100
AcDbEntity
  8
LAYER47
370
    13
390
0
  6
Continuous
 62
     9
100
AcDbPolyline
 90
        6
 70
     1
 10
-381.843778
 20
3.671926
 10
-386.746168
 20
-14.999939
 10
-397.546902
 20
-14.999988
 10
-400.19545
 20
-1.37881
 10
-390.894588
 20
-1.378895
 10
-389.015741
 20
3.671987
  0
LWPOLYLINE
  5
F8
100
AcDbEntity
  8
LAYER47
370
    13
390
0
  6
Continuous
 62
    12
100
AcDbPolyline
 90
        6
 70
     1
 10
-381.843778
 20
3.671926
 10
-386.746168
 20
-14.999939
 10
-397.546902
 20
-14.999988
 10
-400.19545
 20
-1.37881
 10
-390.894588
 20
-1.378895
 10
-389.015741
 20
3.671987
  0
LWPOLYLINE
  5
F9
100
AcDbEntity
  8
LAYER47
370
    13
390
0
  6
DOT
 62
   213
100
AcDbPolyline
 90
        6
 70
     1
 10
-381.843778
 20
3.671926
 10
-386.746168
 20
-14.999939
 10
-397.546902
 20
-14.999988
 10
-400.19545
 20
-1.37881
 10
-390.894588
 20
-1.378895
 10
-389.015741
 20
3.671987
  0
LWPOLYLINE
  5
FA
100
AcDbEntity
  8
LAYER47
370
    13
390
0
  6
Continuous
 62
   213
100
AcDbPolyline
 90
        4
 70
     1
 10
-389.015741
 20
3.671987
 10
-380.140684
 20
27.515675
 10
-363.621104
 20
27.515669
 10
-356.980513
 20
3.671888
  0
LWPOLYLINE
  5
FB
100
AcDbEntity
  8
LAYER47
370
    13
390
0
  6
Continuous
 62
     9
100
AcDbPolyline
 90
        4
 70
     1
 10
-389.015741
 20
3.671987
 10
-380.140684
 20
27.515675
 10
-363.621104
 20
27.515669
 10
-356.980513
 20
3.671888
  0
LWPOLYLINE
  5
FC
100
AcDbEntity
  8
LAYER47
370
    13
390
0
  6
Continuous
 62
    12
100
AcDbPolyline
 90
        4
 70
     1
 10
-389.015741
 20
3.671987
 10
-380.140684
 20
27.515675
 10
-363.621104
 20
27.515669
 10
-356.980513
 20
3.671888
  0
LWPOLYLINE
  5
FD
100
AcDbEntity
  8
LAYER47
370
    13
390
0
  6
DOT
 62
   213
100
AcDbPolyline
 90
        4
 70
     1
 10
-389.015741
 20
3.671987
 10
-380.140684
 20
27.515675
 10
-363.621104
 20
27.515669
 10
-356.980513
 20
3.671888
  0
LWPOLYLINE
  5
FE
100
AcDbEntity
  8
LAYER47
370
    13
390
0
  6
Continuous
 62
   213
100
AcDbPolyline
 90
        4
 70
     1
 10
-346.015723
 20
3.671966
 10
-339.468818
 20
27.515673
 10
-324.113334
 20
27.515653
 10
-317.503861
 20
3.671842
  0
LWPOLYLINE
  5
FF
100
AcDbEntity
  8
LAYER47
370
    13
390
0
  6
Continuous
 62
     9
100
AcDbPolyline
 90
        4
 70
     1
 10
-346.015723
 20
3.671966
 10
-339.468818
 20
27.515673
 10
-324.113334
 20
27.515653
 10
-317.503861
 20
3.671842
  0
LWPOLYLINE
  5
100
100
AcDbEntity
  8
LAYER47
370
    13
390
0
  6
Continuous
 62
    12
100
AcDbPolyline
 90
        4
 70
     1
 10
-346.015723
 20
3.671966
 10
-339.468818
 20
27.515673
 10
-324.113334
 20
27.515653
 10
-317.503861
 20
3.671842
  0
LWPOLYLINE
  5
101
100
AcDbEntity
  8
LAYER47
370
    13
390
0
  6
DOT
 62
   213
100
AcDbPolyline
 90
        4
 70
     1
 10
-346.015723
 20
3.671966
 10
-339.468818
 20
27.515673
 10
-324.113334
 20
27.515653
 10
-317.503861
 20
3.671842
  0
LWPOLYLINE
  5
102
100
AcDbEntity
  8
LAYER47
370
    13
390
0
  6
Continuous
 62
   213
100
AcDbPolyline
 90
        4
 70
     1
 10
-308.132791
 20
3.671866
 10
-301.535129
 20
27.515564
 10
-236.656329
 20
27.51566
 10
-230.265709
 20
3.67193
  0
LWPOLYLINE
  5
103
100
AcDbEntity
  8
LAYER47
370
    13
390
0
  6
Continuous
 62
     9
100
AcDbPolyline
 90
        4
 70
     1
 10
-308.132791
 20
3.671866
 10
-301.535129
 20
27.515564
 10
-236.656329
 20
27.51566
 10
-230.265709
 20
3.67193
  0
LWPOLYLINE
  5
104
100
AcDbEntity
  8
LAYER47
370
    13
390
0
  6
Continuous
 62
    12
100
AcDbPolyline
 90
        4
 70
     1
 10
-308.132791
 20
3.671866
 10
-301.535129
 20
27.515564
 10
-236.656329
 20
27.51566
 10
-230.265709
 20
3.67193
  0
LWPOLYLINE
  5
105
100
AcDbEntity
  8
LAYER47
370
    13
390
0
  6
DOT
 62
   213
100
AcDbPolyline
 90
        4
 70
     1
 10
-308.132791
 20
3.671866
 10
-301.535129
 20
27.515564
 10
-236.656329
 20
27.51566
 10
-230.265709
 20
3.67193
  0
LWPOLYLINE
  5
106
100
AcDbEntity
  8
LAYER47
370
    13
390
0
  6
Continuous
 62
   213
100
AcDbPolyline
 90
        4
 70
     1
 10
-220.949249
 20
3.671907
 10
-214.562547
 20
27.515641
 10
-144.804738
 20
27.515671
 10
-138.417971
 20
3.671886
  0
LWPOLYLINE
  5
107
100
AcDbEntity
  8
LAYER47
370
    13
390
0
  6
Continuous
 62
     9
100
AcDbPolyline
 90
        4
 70
     1
 10
-220.949249
 20
3.671907
 10
-214.562547
 20
27.515641
 10
-144.804738
 20
27.515671
 10
-138.417971
 20
3.671886
  0
LWPOLYLINE
  5
108
100
AcDbEntity
  8
LAYER47
370
    13
390
0
  6
Continuous
 62
    12
100
AcDbPolyline
 90
        4
 70
     1
 10
-220.949249
 20
3.671907
 10
-214.562547
 20
27.515641
 10
-144.804738
 20
27.515671
 10
-138.417971
 20
3.671886
  0
LWPOLYLINE
  5
109
100
AcDbEntity
  8
LAYER47
370
    13
390
0
  6
DOT
 62
   213
100
AcDbPolyline
 90
        4
 70
     1
 10
-220.949249
 20
3.671907
 10
-214.562547
 20
27.515641
 10
-144.804738
 20
27.515671
 10
-138.417971
 20
3.671886
  0
LWPOLYLINE
  5
10A
100
AcDbEntity
  8
LAYER47
370
    13
390
0
  6
Continuous
 62
   213
100
AcDbPolyline
 90
        4
 70
     1
 10
-129.101511
 20
3.671864
 10
-122.710956
 20
27.515651
 10
-53.875125
 20
27.515711
 10
-47.484505
 20
3.671981
  0
LWPOLYLINE
  5
10B
100
AcDbEntity
  8
LAYER47
370
    13
390
0
  6
Continuous
 62
     9
100
AcDbPolyline
 90
        4
 70
     1
 10
-129.101511
 20
3.671864
 10
-122.710956
 20
27.515651
 10
-53.875125
 20
27.515711
 10
-47.484505
 20
3.671981
  0
LWPOLYLINE
  5
10C
100
AcDbEntity
  8
LAYER47
370
    13
390
0
  6
Continuous
 62
    12
100
AcDbPolyline
 90
        4
 70
     1
 10
-129.101511
 20
3.671864
 10
-122.710956
 20
27.515651
 10
-53.875125
 20
27.515711
 10
-47.484505
 20
3.671981
  0
LWPOLYLINE
  5
10D
100
AcDbEntity
  8
LAYER47
370
    13
390
0
  6
DOT
 62
   213
100
AcDbPolyline
 90
        4
 70
     1
 10
-129.101511
 20
3.671864
 10
-122.710956
 20
27.515651
 10
-53.875125
 20
27.515711
 10
-47.484505
 20
3.671981
  0
LWPOLYLINE
  5
10E
100
AcDbEntity
  8
LAYER47
370
    13
390
0
  6
Continuous
 62
   213
100
AcDbPolyline
 90
        4
 70
     1
 10
-38.234495
 20
0.000074
 10
-34.664142
 20
13.320384
 10
0.511583
 20
13.32041
 10
3.097594
 20
0.000039
  0
LWPOLYLINE
  5
10F
100
AcDbEntity
  8
LAYER47
370
    13
390
0
  6
Continuous
 62
     9
100
AcDbPolyline
 90
        4
 70
     1
 10
-38.234495
 20
0.000074
 10
-34.664142
 20
13.320384
 10
0.511583
 20
13.32041
 10
3.097594
 20
0.000039
  0
LWPOLYLINE
  5
110
100
AcDbEntity
  8
LAYER47
370
    13
390
0
  6
Continuous
 62
    12
100
AcDbPolyline
 90
        4
 70
     1
 10
-38.234495
 20
0.000074
 10
-34.664142
 20
13.320384
 10
0.511583
 20
13.32041
 10
3.097594
 20
0.000039
  0
LWPOLYLINE
  5
111
100
AcDbEntity
  8
LAYER47
370
    13
390
0
  6
DOT
 62
   213
100
AcDbPolyline
 90
        4
 70
     1
 10
-38.234495
 20
0.000074
 10
-34.664142
 20
13.320384
 10
0.511583
 20
13.32041
 10
3.097594
 20
0.000039
  0
ENDBLK
  5
112
100
AcDbEntity
  8
0
390
0
100
AcDbBlockEnd
  0
BLOCK
  5
119
100
AcDbEntity
  8
0
390
0
100
AcDbBlockBegin
  2
DUMMY1NK_M_A1_0
 70
     0
 10
0.0
 20
0.0
 30
0.0
  3
DUMMY1NK_M_A1_0
  1

  0
LWPOLYLINE
  5
11A
100
AcDbEntity
  8
LAYER47
370
    25
390
0
  6
Continuous
 62
    92
100
AcDbPolyline
 90
        4
 70
     1
 10
-35.000016
 20
-0.000043
 10
-34.999887
 20
-24.999919
 10
0.000129
 20
-24.999876
 10
0.0
 20
0.0
  0
ENDBLK
  5
11B
100
AcDbEntity
  8
0
390
0
100
AcDbBlockEnd
  0
BLOCK
  5
11E
100
AcDbEntity
  8
0
390
0
100
AcDbBlockBegin
  2
D47CJANK_M_A1_0
 70
     0
 10
0.0
 20
0.0
 30
0.0
  3
D47CJANK_M_A1_0
  1

  0
LWPOLYLINE
  5
11F
100
AcDbEntity
  8
LAYER47
370
    13
390
0
  6
Continuous
 62
   213
100
AcDbPolyline
 90
        9
 70
     1
 10
37.999954
 20
-27.554725
 10
33.140674
 20
0.000029
 10
19.468885
 20
0.000113
 10
14.011772
 20
15.000029
 10
2.812571
 20
15.000041
 10
0.0
 20
0.0
 10
12.285196
 20
0.000036
 10
15.625111
 20
-9.187422
 10
31.316372
 20
-9.187522
  0
LWPOLYLINE
  5
120
100
AcDbEntity
  8
LAYER47
370
    13
390
0
  6
Continuous
 62
     9
100
AcDbPolyline
 90
        9
 70
     1
 10
37.999954
 20
-27.554725
 10
33.140674
 20
0.000029
 10
19.468885
 20
0.000113
 10
14.011772
 20
15.000029
 10
2.812571
 20
15.000041
 10
0.0
 20
0.0
 10
12.285196
 20
0.000036
 10
15.625111
 20
-9.187422
 10
31.316372
 20
-9.187522
  0
LWPOLYLINE
  5
121
100
AcDbEntity
  8
LAYER47
370
    13
390
0
  6
Continuous
 62
    12
100
AcDbPolyline
 90
        9
 70
     1
 10
37.999954
 20
-27.554725
 10
33.140674
 20
0.000029
 10
19.468885
 20
0.000113
 10
14.011772
 20
15.000029
 10
2.812571
 20
15.000041
 10
0.0
 20
0.0
 10
12.285196
 20
0.000036
 10
15.625111
 20
-9.187422
 10
31.316372
 20
-9.187522
  0
LWPOLYLINE
  5
122
100
AcDbEntity
  8
LAYER47
370
    13
390
0
  6
DOT
 62
   213
100
AcDbPolyline
 90
        9
 70
     1
 10
37.999954
 20
-27.554725
 10
33.140674
 20
0.000029
 10
19.468885
 20
0.000113
 10
14.011772
 20
15.000029
 10
2.812571
 20
15.000041
 10
0.0
 20
0.0
 10
12.285196
 20
0.000036
 10
15.625111
 20
-9.187422
 10
31.316372
 20
-9.187522
  0
LWPOLYLINE
  5
123
100
AcDbEntity
  8
LAYER47
370
    13
390
0
  6
Continuous
 62
   213
100
AcDbPolyline
 90
        4
 70
     1
 10
-345.351416
 20
-6.089751
 10
-349.242195
 20
8.074205
 10
-353.831956
 20
8.074268
 10
-357.628946
 20
-6.089849
  0
LWPOLYLINE
  5
124
100
AcDbEntity
  8
LAYER47
370
    13
390
0
  6
Continuous
 62
     9
100
AcDbPolyline
 90
        4
 70
     1
 10
-345.351416
 20
-6.089751
 10
-349.242195
 20
8.074205
 10
-353.831956
 20
8.074268
 10
-357.628946
 20
-6.089849
  0
LWPOLYLINE
  5
125
100
AcDbEntity
  8
LAYER47
370
    13
390
0
  6
Continuous
 62
    12
100
AcDbPolyline
 90
        4
 70
     1
 10
-345.351416
 20
-6.089751
 10
-349.242195
 20
8.074205
 10
-353.831956
 20
8.074268
 10
-357.628946
 20
-6.089849
  0
LWPOLYLINE
  5
126
100
AcDbEntity
  8
LAYER47
370
    13
390
0
  6
DOT
 62
   213
100
AcDbPolyline
 90
        4
 70
     1
 10
-345.351416
 20
-6.089751
 10
-349.242195
 20
8.074205
 10
-353.831956
 20
8.074268
 10
-357.628946
 20
-6.089849
  0
LWPOLYLINE
  5
127
100
AcDbEntity
  8
LAYER47
370
    13
390
0
  6
Continuous
 62
   213
100
AcDbPolyline
 90
        6
 70
     1
 10
-381.843778
 20
-3.671926
 10
-386.74598
 20
15.000095
 10
-397.546902
 20
14.999988
 10
-400.195262
 20
1.378966
 10
-390.894588
 20
1.378895
 10
-389.015553
 20
-3.671831
  0
LWPOLYLINE
  5
128
100
AcDbEntity
  8
LAYER47
370
    13
390
0
  6
Continuous
 62
     9
100
AcDbPolyline
 90
        6
 70
     1
 10
-381.843778
 20
-3.671926
 10
-386.74598
 20
15.000095
 10
-397.546902
 20
14.999988
 10
-400.195262
 20
1.378966
 10
-390.894588
 20
1.378895
 10
-389.015553
 20
-3.671831
  0
LWPOLYLINE
  5
129
100
AcDbEntity
  8
LAYER47
370
    13
390
0
  6
Continuous
 62
    12
100
AcDbPolyline
 90
        6
 70
     1
 10
-381.843778
 20
-3.671926
 10
-386.74598
 20
15.000095
 10
-397.546902
 20
14.999988
 10
-400.195262
 20
1.378966
 10
-390.894588
 20
1.378895
 10
-389.015553
 20
-3.671831
  0
LWPOLYLINE
  5
12A
100
AcDbEntity
  8
LAYER47
370
    13
390
0
  6
DOT
 62
   213
100
AcDbPolyline
 90
        6
 70
     1
 10
-381.843778
 20
-3.671926
 10
-386.74598
 20
15.000095
 10
-397.546902
 20
14.999988
 10
-400.195262
 20
1.378966
 10
-390.894588
 20
1.378895
 10
-389.015553
 20
-3.671831
  0
LWPOLYLINE
  5
12B
100
AcDbEntity
  8
LAYER47
370
    13
390
0
  6
Continuous
 62
   213
100
AcDbPolyline
 90
        4
 70
     1
 10
-389.015553
 20
-3.671831
 10
-380.140496
 20
-27.515519
 10
-363.621104
 20
-27.515669
 10
-356.980513
 20
-3.671888
  0
LWPOLYLINE
  5
12C
100
AcDbEntity
  8
LAYER47
370
    13
390
0
  6
Continuous
 62
     9
100
AcDbPolyline
 90
        4
 70
     1
 10
-389.015553
 20
-3.671831
 10
-380.140496
 20
-27.515519
 10
-363.621104
 20
-27.515669
 10
-356.980513
 20
-3.671888
  0
LWPOLYLINE
  5
12D
100
AcDbEntity
  8
LAYER47
370
    13
390
0
  6
Continuous
 62
    12
100
AcDbPolyline
 90
        4
 70
     1
 10
-389.015553
 20
-3.671831
 10
-380.140496
 20
-27.515519
 10
-363.621104
 20
-27.515669
 10
-356.980513
 20
-3.671888
  0
LWPOLYLINE
  5
12E
100
AcDbEntity
  8
LAYER47
370
    13
390
0
  6
DOT
 62
   213
100
AcDbPolyline
 90
        4
 70
     1
 10
-389.015553
 20
-3.671831
 10
-380.140496
 20
-27.515519
 10
-363.621104
 20
-27.515669
 10
-356.980513
 20
-3.671888
  0
LWPOLYLINE
  5
12F
100
AcDbEntity
  8
LAYER47
370
    13
390
0
  6
Continuous
 62
   213
100
AcDbPolyline
 90
        4
 70
     1
 10
-346.015536
 20
-3.67181
 10
-339.46863
 20
-27.515517
 10
-324.113334
 20
-27.515653
 10
-317.503861
 20
-3.671842
  0
LWPOLYLINE
  5
130
100
AcDbEntity
  8
LAYER47
370
    13
390
0
  6
Continuous
 62
     9
100
AcDbPolyline
 90
        4
 70
     1
 10
-346.015536
 20
-3.67181
 10
-339.46863
 20
-27.515517
 10
-324.113334
 20
-27.515653
 10
-317.503861
 20
-3.671842
  0
LWPOLYLINE
  5
131
100
AcDbEntity
  8
LAYER47
370
    13
390
0
  6
Continuous
 62
    12
100
AcDbPolyline
 90
        4
 70
     1
 10
-346.015536
 20
-3.67181
 10
-339.46863
 20
-27.515517
 10
-324.113334
 20
-27.515653
 10
-317.503861
 20
-3.671842
  0
LWPOLYLINE
  5
132
100
AcDbEntity
  8
LAYER47
370
    13
390
0
  6
DOT
 62
   213
100
AcDbPolyline
 90
        4
 70
     1
 10
-346.015536
 20
-3.67181
 10
-339.46863
 20
-27.515517
 10
-324.113334
 20
-27.515653
 10
-317.503861
 20
-3.671842
  0
LWPOLYLINE
  5
133
100
AcDbEntity
  8
LAYER47
370
    13
390
0
  6
Continuous
 62
   213
100
AcDbPolyline
 90
        4
 70
     1
 10
-308.132791
 20
-3.671866
 10
-301.535129
 20
-27.515564
 10
-236.656141
 20
-27.515504
 10
-230.265521
 20
-3.671774
  0
LWPOLYLINE
  5
134
100
AcDbEntity
  8
LAYER47
370
    13
390
0
  6
Continuous
 62
     9
100
AcDbPolyline
 90
        4
 70
     1
 10
-308.132791
 20
-3.671866
 10
-301.535129
 20
-27.515564
 10
-236.656141
 20
-27.515504
 10
-230.265521
 20
-3.671774
  0
LWPOLYLINE
  5
135
100
AcDbEntity
  8
LAYER47
370
    13
390
0
  6
Continuous
 62
    12
100
AcDbPolyline
 90
        4
 70
     1
 10
-308.132791
 20
-3.671866
 10
-301.535129
 20
-27.515564
 10
-236.656141
 20
-27.515504
 10
-230.265521
 20
-3.671774
  0
LWPOLYLINE
  5
136
100
AcDbEntity
  8
LAYER47
370
    13
390
0
  6
DOT
 62
   213
100
AcDbPolyline
 90
        4
 70
     1
 10
-308.132791
 20
-3.671866
 10
-301.535129
 20
-27.515564
 10
-236.656141
 20
-27.515504
 10
-230.265521
 20
-3.671774
  0
LWPOLYLINE
  5
137
100
AcDbEntity
  8
LAYER47
370
    13
390
0
  6
Continuous
 62
   213
100
AcDbPolyline
 90
        4
 70
     1
 10
-220.949249
 20
-3.671907
 10
-214.562547
 20
-27.515641
 10
-144.80455
 20
-27.515515
 10
-138.417971
 20
-3.671886
  0
LWPOLYLINE
  5
138
100
AcDbEntity
  8
LAYER47
370
    13
390
0
  6
Continuous
 62
     9
100
AcDbPolyline
 90
        4
 70
     1
 10
-220.949249
 20
-3.671907
 10
-214.562547
 20
-27.515641
 10
-144.80455
 20
-27.515515
 10
-138.417971
 20
-3.671886
  0
LWPOLYLINE
  5
139
100
AcDbEntity
  8
LAYER47
370
    13
390
0
  6
Continuous
 62
    12
100
AcDbPolyline
 90
        4
 70
     1
 10
-220.949249
 20
-3.671907
 10
-214.562547
 20
-27.515641
 10
-144.80455
 20
-27.515515
 10
-138.417971
 20
-3.671886
  0
LWPOLYLINE
  5
13A
100
AcDbEntity
  8
LAYER47
370
    13
390
0
  6
DOT
 62
   213
100
AcDbPolyline
 90
        4
 70
     1
 10
-220.949249
 20
-3.671907
 10
-214.562547
 20
-27.515641
 10
-144.80455
 20
-27.515515
 10
-138.417971
 20
-3.671886
  0
LWPOLYLINE
  5
13B
100
AcDbEntity
  8
LAYER47
370
    13
390
0
  6
Continuous
 62
   213
100
AcDbPolyline
 90
        4
 70
     1
 10
-129.101511
 20
-3.671864
 10
-122.710956
 20
-27.515651
 10
-53.874937
 20
-27.515555
 10
-47.484317
 20
-3.671825
  0
LWPOLYLINE
  5
13C
100
AcDbEntity
  8
LAYER47
370
    13
390
0
  6
Continuous
 62
     9
100
AcDbPolyline
 90
        4
 70
     1
 10
-129.101511
 20
-3.671864
 10
-122.710956
 20
-27.515651
 10
-53.874937
 20
-27.515555
 10
-47.484317
 20
-3.671825
  0
LWPOLYLINE
  5
13D
100
AcDbEntity
  8
LAYER47
370
    13
390
0
  6
Continuous
 62
    12
100
AcDbPolyline
 90
        4
 70
     1
 10
-129.101511
 20
-3.671864
 10
-122.710956
 20
-27.515651
 10
-53.874937
 20
-27.515555
 10
-47.484317
 20
-3.671825
  0
LWPOLYLINE
  5
13E
100
AcDbEntity
  8
LAYER47
370
    13
390
0
  6
DOT
 62
   213
100
AcDbPolyline
 90
        4
 70
     1
 10
-129.101511
 20
-3.671864
 10
-122.710956
 20
-27.515651
 10
-53.874937
 20
-27.515555
 10
-47.484317
 20
-3.671825
  0
LWPOLYLINE
  5
13F
100
AcDbEntity
  8
LAYER47
370
    13
390
0
  6
Continuous
 62
   213
100
AcDbPolyline
 90
        4
 70
     1
 10
-38.234307
 20
0.000082
 10
-34.663954
 20
-13.320228
 10
0.511771
 20
-13.320254
 10
3.097781
 20
0.000117
  0
LWPOLYLINE
  5
140
100
AcDbEntity
  8
LAYER47
370
    13
390
0
  6
Continuous
 62
     9
100
AcDbPolyline
 90
        4
 70
     1
 10
-38.234307
 20
0.000082
 10
-34.663954
 20
-13.320228
 10
0.511771
 20
-13.320254
 10
3.097781
 20
0.000117
  0
LWPOLYLINE
  5
141
100
AcDbEntity
  8
LAYER47
370
    13
390
0
  6
Continuous
 62
    12
100
AcDbPolyline
 90
        4
 70
     1
 10
-38.234307
 20
0.000082
 10
-34.663954
 20
-13.320228
 10
0.511771
 20
-13.320254
 10
3.097781
 20
0.000117
  0
LWPOLYLINE
  5
142
100
AcDbEntity
  8
LAYER47
370
    13
390
0
  6
DOT
 62
   213
100
AcDbPolyline
 90
        4
 70
     1
 10
-38.234307
 20
0.000082
 10
-34.663954
 20
-13.320228
 10
0.511771
 20
-13.320254
 10
3.097781
 20
0.000117
  0
ENDBLK
  5
143
100
AcDbEntity
  8
0
390
0
100
AcDbBlockEnd
  0
BLOCK
  5
146
100
AcDbEntity
  8
0
390
0
100
AcDbBlockBegin
  2
D47CJ1NK_A1_0
 70
     0
 10
0.0
 20
0.0
 30
0.0
  3
D47CJ1NK_A1_0
  1

  0
LWPOLYLINE
  5
147
100
AcDbEntity
  8
LAYER47
370
    13
390
0
  6
Continuous
 62
   213
100
AcDbPolyline
 90
       13
 70
     1
 10
-211.125
 20
0.0
 10
-203.832031
 20
0.0
 10
-201.210938
 20
9.851563
 42
-0.524252
 10
-195.58252
 20
11.901733
 42
0.393962
 10
-142.196045
 20
19.016235
 42
0.152251
 10
-129.838867
 20
26.350586
 42
-0.21243
 10
-127.140625
 20
27.553589
 10
-124.570313
 20
27.554688
 42
-0.212433
 10
-121.871582
 20
26.351196
 42
0.152237
 10
-109.511475
 20
19.016479
 42
0.360227
 10
-60.06665
 20
9.437744
 42
-0.487317
 10
-54.798828
 20
7.156738
 10
-52.898438
 20
0.0
  0
LWPOLYLINE
  5
148
100
AcDbEntity
  8
LAYER47
370
    13
390
0
  6
Continuous
 62
     9
100
AcDbPolyline
 90
       13
 70
     1
 10
-211.125
 20
0.0
 10
-203.832031
 20
0.0
 10
-201.210938
 20
9.851563
 42
-0.524252
 10
-195.58252
 20
11.901733
 42
0.393962
 10
-142.196045
 20
19.016235
 42
0.152251
 10
-129.838867
 20
26.350586
 42
-0.21243
 10
-127.140625
 20
27.553589
 10
-124.570313
 20
27.554688
 42
-0.212433
 10
-121.871582
 20
26.351196
 42
0.152237
 10
-109.511475
 20
19.016479
 42
0.360227
 10
-60.06665
 20
9.437744
 42
-0.487317
 10
-54.798828
 20
7.156738
 10
-52.898438
 20
0.0
  0
LWPOLYLINE
  5
149
100
AcDbEntity
  8
LAYER47
370
    13
390
0
  6
Continuous
 62
    12
100
AcDbPolyline
 90
       13
 70
     1
 10
-211.125
 20
0.0
 10
-203.832031
 20
0.0
 10
-201.210938
 20
9.851563
 42
-0.524252
 10
-195.58252
 20
11.901733
 42
0.393962
 10
-142.196045
 20
19.016235
 42
0.152251
 10
-129.838867
 20
26.350586
 42
-0.21243
 10
-127.140625
 20
27.553589
 10
-124.570313
 20
27.554688
 42
-0.212433
 10
-121.871582
 20
26.351196
 42
0.152237
 10
-109.511475
 20
19.016479
 42
0.360227
 10
-60.06665
 20
9.437744
 42
-0.487317
 10
-54.798828
 20
7.156738
 10
-52.898438
 20
0.0
  0
LWPOLYLINE
  5
14A
100
AcDbEntity
  8
LAYER47
370
    13
390
0
  6
DOT
 62
   213
100
AcDbPolyline
 90
       13
 70
     1
 10
-211.125
 20
0.0
 10
-203.832031
 20
0.0
 10
-201.210938
 20
9.851563
 42
-0.524252
 10
-195.58252
 20
11.901733
 42
0.393962
 10
-142.196045
 20
19.016235
 42
0.152251
 10
-129.838867
 20
26.350586
 42
-0.21243
 10
-127.140625
 20
27.553589
 10
-124.570313
 20
27.554688
 42
-0.212433
 10
-121.871582
 20
26.351196
 42
0.152237
 10
-109.511475
 20
19.016479
 42
0.360227
 10
-60.06665
 20
9.437744
 42
-0.487317
 10
-54.798828
 20
7.156738
 10
-52.898438
 20
0.0
  0
LWPOLYLINE
  5
14B
100
AcDbEntity
  8
LAYER47
370
    13
390
0
  6
Continuous
 62
   213
100
AcDbPolyline
 90
        4
 70
     1
 10
-75.855469
 20
0.0
 10
-81.277344
 20
-15.0
 10
-108.417969
 20
-15.0
 10
-113.835938
 20
0.0
  0
LWPOLYLINE
  5
14C
100
AcDbEntity
  8
LAYER47
370
    13
390
0
  6
Continuous
 62
     9
100
AcDbPolyline
 90
        4
 70
     1
 10
-75.855469
 20
0.0
 10
-81.277344
 20
-15.0
 10
-108.417969
 20
-15.0
 10
-113.835938
 20
0.0
  0
LWPOLYLINE
  5
14D
100
AcDbEntity
  8
LAYER47
370
    13
390
0
  6
Continuous
 62
    12
100
AcDbPolyline
 90
        4
 70
     1
 10
-75.855469
 20
0.0
 10
-81.277344
 20
-15.0
 10
-108.417969
 20
-15.0
 10
-113.835938
 20
0.0
  0
LWPOLYLINE
  5
14E
100
AcDbEntity
  8
LAYER47
370
    13
390
0
  6
DOT
 62
   213
100
AcDbPolyline
 90
        4
 70
     1
 10
-75.855469
 20
0.0
 10
-81.277344
 20
-15.0
 10
-108.417969
 20
-15.0
 10
-113.835938
 20
0.0
  0
LWPOLYLINE
  5
14F
100
AcDbEntity
  8
LAYER47
370
    13
390
0
  6
Continuous
 62
   213
100
AcDbPolyline
 90
        4
 70
     1
 10
-174.546875
 20
0.0
 10
-179.96875
 20
-15.0
 10
-207.136719
 20
-15.0
 10
-211.125
 20
0.0
  0
LWPOLYLINE
  5
150
100
AcDbEntity
  8
LAYER47
370
    13
390
0
  6
Continuous
 62
     9
100
AcDbPolyline
 90
        4
 70
     1
 10
-174.546875
 20
0.0
 10
-179.96875
 20
-15.0
 10
-207.136719
 20
-15.0
 10
-211.125
 20
0.0
  0
LWPOLYLINE
  5
151
100
AcDbEntity
  8
LAYER47
370
    13
390
0
  6
Continuous
 62
    12
100
AcDbPolyline
 90
        4
 70
     1
 10
-174.546875
 20
0.0
 10
-179.96875
 20
-15.0
 10
-207.136719
 20
-15.0
 10
-211.125
 20
0.0
  0
LWPOLYLINE
  5
152
100
AcDbEntity
  8
LAYER47
370
    13
390
0
  6
DOT
 62
   213
100
AcDbPolyline
 90
        4
 70
     1
 10
-174.546875
 20
0.0
 10
-179.96875
 20
-15.0
 10
-207.136719
 20
-15.0
 10
-211.125
 20
0.0
  0
ENDBLK
  5
153
100
AcDbEntity
  8
0
390
0
100
AcDbBlockEnd
  0
BLOCK
  5
157
100
AcDbEntity
  8
0
390
0
100
AcDbBlockBegin
  2
D47CJ2NK_A1_0
 70
     0
 10
0.0
 20
0.0
 30
0.0
  3
D47CJ2NK_A1_0
  1

  0
LWPOLYLINE
  5
158
100
AcDbEntity
  8
LAYER47
370
    13
390
0
  6
Continuous
 62
   213
100
AcDbPolyline
 90
        4
 70
     1
 10
-74.832031
 20
0.0
 10
-80.285156
 20
-14.982422
 10
-107.734375
 20
-14.982422
 10
-113.1875
 20
0.0
  0
LWPOLYLINE
  5
159
100
AcDbEntity
  8
LAYER47
370
    13
390
0
  6
Continuous
 62
     9
100
AcDbPolyline
 90
        4
 70
     1
 10
-74.832031
 20
0.0
 10
-80.285156
 20
-14.982422
 10
-107.734375
 20
-14.982422
 10
-113.1875
 20
0.0
  0
LWPOLYLINE
  5
15A
100
AcDbEntity
  8
LAYER47
370
    13
390
0
  6
Continuous
 62
    12
100
AcDbPolyline
 90
        4
 70
     1
 10
-74.832031
 20
0.0
 10
-80.285156
 20
-14.982422
 10
-107.734375
 20
-14.982422
 10
-113.1875
 20
0.0
  0
LWPOLYLINE
  5
15B
100
AcDbEntity
  8
LAYER47
370
    13
390
0
  6
DOT
 62
   213
100
AcDbPolyline
 90
        4
 70
     1
 10
-74.832031
 20
0.0
 10
-80.285156
 20
-14.982422
 10
-107.734375
 20
-14.982422
 10
-113.1875
 20
0.0
  0
LWPOLYLINE
  5
15C
100
AcDbEntity
  8
LAYER47
370
    13
390
0
  6
Continuous
 62
   213
100
AcDbPolyline
 90
        4
 70
     1
 10
-180.355469
 20
0.0
 10
-142.636719
 20
0.0
 10
-148.089844
 20
-14.982422
 10
-174.902344
 20
-14.982422
  0
LWPOLYLINE
  5
15D
100
AcDbEntity
  8
LAYER47
370
    13
390
0
  6
Continuous
 62
     9
100
AcDbPolyline
 90
        4
 70
     1
 10
-180.355469
 20
0.0
 10
-142.636719
 20
0.0
 10
-148.089844
 20
-14.982422
 10
-174.902344
 20
-14.982422
  0
LWPOLYLINE
  5
15E
100
AcDbEntity
  8
LAYER47
370
    13
390
0
  6
Continuous
 62
    12
100
AcDbPolyline
 90
        4
 70
     1
 10
-180.355469
 20
0.0
 10
-142.636719
 20
0.0
 10
-148.089844
 20
-14.982422
 10
-174.902344
 20
-14.982422
  0
LWPOLYLINE
  5
15F
100
AcDbEntity
  8
LAYER47
370
    13
390
0
  6
DOT
 62
   213
100
AcDbPolyline
 90
        4
 70
     1
 10
-180.355469
 20
0.0
 10
-142.636719
 20
0.0
 10
-148.089844
 20
-14.982422
 10
-174.902344
 20
-14.982422
  0
LWPOLYLINE
  5
160
100
AcDbEntity
  8
LAYER47
370
    13
390
0
  6
Continuous
 62
   213
100
AcDbPolyline
 90
       21
 70
     1
 10
-228.59375
 20
-57.154297
 10
-224.558594
 20
21.15625
 42
-0.399422
 10
-217.3125
 20
28.036865
 10
-209.445313
 20
28.0
 42
-0.269512
 10
-204.723633
 20
25.255249
 42
0.145117
 10
-188.558594
 20
9.746094
 42
-0.211179
 10
-186.262451
 20
6.894287
 10
-184.730469
 20
0.0
 10
-177.390625
 20
0.0
 10
-177.117188
 20
1.785156
 42
-0.370239
 10
-172.640625
 20
5.626709
 42
0.219177
 10
-142.8125
 20
16.751953
 42
-0.176594
 10
-128.59375
 20
22.603516
 10
-119.3125
 20
22.603516
 42
-0.176576
 10
-105.097656
 20
16.751953
 10
-98.960938
 20
11.734375
 42
0.262742
 10
-60.246094
 20
9.267578
 42
-0.470551
 10
-53.983887
 20
6.400513
 10
-52.546875
 20
0.0
 10
-217.0
 20
0.0
 10
-219.210938
 20
-40.863281
  0
LWPOLYLINE
  5
161
100
AcDbEntity
  8
LAYER47
370
    13
390
0
  6
Continuous
 62
     9
100
AcDbPolyline
 90
       21
 70
     1
 10
-228.59375
 20
-57.154297
 10
-224.558594
 20
21.15625
 42
-0.399422
 10
-217.3125
 20
28.036865
 10
-209.445313
 20
28.0
 42
-0.269512
 10
-204.723633
 20
25.255249
 42
0.145117
 10
-188.558594
 20
9.746094
 42
-0.211179
 10
-186.262451
 20
6.894287
 10
-184.730469
 20
0.0
 10
-177.390625
 20
0.0
 10
-177.117188
 20
1.785156
 42
-0.370239
 10
-172.640625
 20
5.626709
 42
0.219177
 10
-142.8125
 20
16.751953
 42
-0.176594
 10
-128.59375
 20
22.603516
 10
-119.3125
 20
22.603516
 42
-0.176576
 10
-105.097656
 20
16.751953
 10
-98.960938
 20
11.734375
 42
0.262742
 10
-60.246094
 20
9.267578
 42
-0.470551
 10
-53.983887
 20
6.400513
 10
-52.546875
 20
0.0
 10
-217.0
 20
0.0
 10
-219.210938
 20
-40.863281
  0
LWPOLYLINE
  5
162
100
AcDbEntity
  8
LAYER47
370
    13
390
0
  6
Continuous
 62
    12
100
AcDbPolyline
 90
       21
 70
     1
 10
-228.59375
 20
-57.154297
 10
-224.558594
 20
21.15625
 42
-0.399422
 10
-217.3125
 20
28.036865
 10
-209.445313
 20
28.0
 42
-0.269512
 10
-204.723633
 20
25.255249
 42
0.145117
 10
-188.558594
 20
9.746094
 42
-0.211179
 10
-186.262451
 20
6.894287
 10
-184.730469
 20
0.0
 10
-177.390625
 20
0.0
 10
-177.117188
 20
1.785156
 42
-0.370239
 10
-172.640625
 20
5.626709
 42
0.219177
 10
-142.8125
 20
16.751953
 42
-0.176594
 10
-128.59375
 20
22.603516
 10
-119.3125
 20
22.603516
 42
-0.176576
 10
-105.097656
 20
16.751953
 10
-98.960938
 20
11.734375
 42
0.262742
 10
-60.246094
 20
9.267578
 42
-0.470551
 10
-53.983887
 20
6.400513
 10
-52.546875
 20
0.0
 10
-217.0
 20
0.0
 10
-219.210938
 20
-40.863281
  0
LWPOLYLINE
  5
163
100
AcDbEntity
  8
LAYER47
370
    13
390
0
  6
DOT
 62
   213
100
AcDbPolyline
 90
       21
 70
     1
 10
-228.59375
 20
-57.154297
 10
-224.558594
 20
21.15625
 42
-0.399422
 10
-217.3125
 20
28.036865
 10
-209.445313
 20
28.0
 42
-0.269512
 10
-204.723633
 20
25.255249
 42
0.145117
 10
-188.558594
 20
9.746094
 42
-0.211179
 10
-186.262451
 20
6.894287
 10
-184.730469
 20
0.0
 10
-177.390625
 20
0.0
 10
-177.117188
 20
1.785156
 42
-0.370239
 10
-172.640625
 20
5.626709
 42
0.219177
 10
-142.8125
 20
16.751953
 42
-0.176594
 10
-128.59375
 20
22.603516
 10
-119.3125
 20
22.603516
 42
-0.176576
 10
-105.097656
 20
16.751953
 10
-98.960938
 20
11.734375
 42
0.262742
 10
-60.246094
 20
9.267578
 42
-0.470551
 10
-53.983887
 20
6.400513
 10
-52.546875
 20
0.0
 10
-217.0
 20
0.0
 10
-219.210938
 20
-40.863281
  0
ENDBLK
  5
164
100
AcDbEntity
  8
0
390
0
100
AcDbBlockEnd
  0
BLOCK
  5
167
100
AcDbEntity
  8
0
390
0
100
AcDbBlockBegin
  2
D47CJ3NK_A1_0
 70
     0
 10
0.0
 20
0.0
 30
0.0
  3
D47CJ3NK_A1_0
  1

  0
LWPOLYLINE
  5
168
100
AcDbEntity
  8
LAYER47
370
    13
390
0
  6
Continuous
 62
   213
100
AcDbPolyline
 90
        4
 70
     1
 10
56.253906
 20
0.0
 10
51.394531
 20
-14.982422
 10
26.492188
 20
-14.982422
 10
22.820313
 20
0.0
  0
LWPOLYLINE
  5
169
100
AcDbEntity
  8
LAYER47
370
    13
390
0
  6
Continuous
 62
     9
100
AcDbPolyline
 90
        4
 70
     1
 10
56.253906
 20
0.0
 10
51.394531
 20
-14.982422
 10
26.492188
 20
-14.982422
 10
22.820313
 20
0.0
  0
LWPOLYLINE
  5
16A
100
AcDbEntity
  8
LAYER47
370
    13
390
0
  6
Continuous
 62
    12
100
AcDbPolyline
 90
        4
 70
     1
 10
56.253906
 20
0.0
 10
51.394531
 20
-14.982422
 10
26.492188
 20
-14.982422
 10
22.820313
 20
0.0
  0
LWPOLYLINE
  5
16B
100
AcDbEntity
  8
LAYER47
370
    13
390
0
  6
DOT
 62
   213
100
AcDbPolyline
 90
        4
 70
     1
 10
56.253906
 20
0.0
 10
51.394531
 20
-14.982422
 10
26.492188
 20
-14.982422
 10
22.820313
 20
0.0
  0
LWPOLYLINE
  5
16C
100
AcDbEntity
  8
LAYER47
370
    13
390
0
  6
Continuous
 62
   213
100
AcDbPolyline
 90
        4
 70
     1
 10
99.886719
 20
0.0
 10
136.871094
 20
0.0
 10
132.0625
 20
-14.982422
 10
104.8125
 20
-14.982422
  0
LWPOLYLINE
  5
16D
100
AcDbEntity
  8
LAYER47
370
    13
390
0
  6
Continuous
 62
     9
100
AcDbPolyline
 90
        4
 70
     1
 10
99.886719
 20
0.0
 10
136.871094
 20
0.0
 10
132.0625
 20
-14.982422
 10
104.8125
 20
-14.982422
  0
LWPOLYLINE
  5
16E
100
AcDbEntity
  8
LAYER47
370
    13
390
0
  6
Continuous
 62
    12
100
AcDbPolyline
 90
        4
 70
     1
 10
99.886719
 20
0.0
 10
136.871094
 20
0.0
 10
132.0625
 20
-14.982422
 10
104.8125
 20
-14.982422
  0
LWPOLYLINE
  5
16F
100
AcDbEntity
  8
LAYER47
370
    13
390
0
  6
DOT
 62
   213
100
AcDbPolyline
 90
        4
 70
     1
 10
99.886719
 20
0.0
 10
136.871094
 20
0.0
 10
132.0625
 20
-14.982422
 10
104.8125
 20
-14.982422
  0
LWPOLYLINE
  5
170
100
AcDbEntity
  8
LAYER47
370
    13
390
0
  6
Continuous
 62
   213
100
AcDbPolyline
 90
       25
 70
     1
 10
11.863281
 20
7.205078
 10
12.769531
 20
10.578125
 42
-0.521708
 10
18.352783
 20
12.597778
 42
0.078298
 10
29.355469
 20
7.175781
 42
-0.257204
 10
31.171143
 20
5.285034
 10
32.214844
 20
0.0
 10
39.746094
 20
0.0
 10
40.339844
 20
3.03125
 42
-0.396225
 10
42.792969
 20
5.433228
 42
0.185893
 10
68.75
 20
16.751953
 42
-0.358284
 10
106.460938
 20
16.751953
 42
0.219317
 10
137.476563
 20
5.535156
 42
-0.363255
 10
140.327148
 20
3.531006
 10
141.273438
 20
0.0
 10
148.382813
 20
0.0
 10
149.914063
 20
6.931641
 42
-0.211179
 10
152.210449
 20
9.783936
 42
0.150435
 10
168.839844
 20
26.09375
 42
-0.276038
 10
172.027344
 20
27.997437
 10
190.277344
 20
28.0
 10
194.511719
 20
-57.148438
 10
181.914063
 20
-36.464844
 10
180.0
 20
0.0
 10
19.582031
 20
0.0
 10
16.957031
 20
7.205078
  0
LWPOLYLINE
  5
171
100
AcDbEntity
  8
LAYER47
370
    13
390
0
  6
Continuous
 62
     9
100
AcDbPolyline
 90
       25
 70
     1
 10
11.863281
 20
7.205078
 10
12.769531
 20
10.578125
 42
-0.521708
 10
18.352783
 20
12.597778
 42
0.078298
 10
29.355469
 20
7.175781
 42
-0.257204
 10
31.171143
 20
5.285034
 10
32.214844
 20
0.0
 10
39.746094
 20
0.0
 10
40.339844
 20
3.03125
 42
-0.396225
 10
42.792969
 20
5.433228
 42
0.185893
 10
68.75
 20
16.751953
 42
-0.358284
 10
106.460938
 20
16.751953
 42
0.219317
 10
137.476563
 20
5.535156
 42
-0.363255
 10
140.327148
 20
3.531006
 10
141.273438
 20
0.0
 10
148.382813
 20
0.0
 10
149.914063
 20
6.931641
 42
-0.211179
 10
152.210449
 20
9.783936
 42
0.150435
 10
168.839844
 20
26.09375
 42
-0.276038
 10
172.027344
 20
27.997437
 10
190.277344
 20
28.0
 10
194.511719
 20
-57.148438
 10
181.914063
 20
-36.464844
 10
180.0
 20
0.0
 10
19.582031
 20
0.0
 10
16.957031
 20
7.205078
  0
LWPOLYLINE
  5
172
100
AcDbEntity
  8
LAYER47
370
    13
390
0
  6
Continuous
 62
    12
100
AcDbPolyline
 90
       25
 70
     1
 10
11.863281
 20
7.205078
 10
12.769531
 20
10.578125
 42
-0.521708
 10
18.352783
 20
12.597778
 42
0.078298
 10
29.355469
 20
7.175781
 42
-0.257204
 10
31.171143
 20
5.285034
 10
32.214844
 20
0.0
 10
39.746094
 20
0.0
 10
40.339844
 20
3.03125
 42
-0.396225
 10
42.792969
 20
5.433228
 42
0.185893
 10
68.75
 20
16.751953
 42
-0.358284
 10
106.460938
 20
16.751953
 42
0.219317
 10
137.476563
 20
5.535156
 42
-0.363255
 10
140.327148
 20
3.531006
 10
141.273438
 20
0.0
 10
148.382813
 20
0.0
 10
149.914063
 20
6.931641
 42
-0.211179
 10
152.210449
 20
9.783936
 42
0.150435
 10
168.839844
 20
26.09375
 42
-0.276038
 10
172.027344
 20
27.997437
 10
190.277344
 20
28.0
 10
194.511719
 20
-57.148438
 10
181.914063
 20
-36.464844
 10
180.0
 20
0.0
 10
19.582031
 20
0.0
 10
16.957031
 20
7.205078
  0
LWPOLYLINE
  5
173
100
AcDbEntity
  8
LAYER47
370
    13
390
0
  6
DOT
 62
   213
100
AcDbPolyline
 90
       25
 70
     1
 10
11.863281
 20
7.205078
 10
12.769531
 20
10.578125
 42
-0.521708
 10
18.352783
 20
12.597778
 42
0.078298
 10
29.355469
 20
7.175781
 42
-0.257204
 10
31.171143
 20
5.285034
 10
32.214844
 20
0.0
 10
39.746094
 20
0.0
 10
40.339844
 20
3.03125
 42
-0.396225
 10
42.792969
 20
5.433228
 42
0.185893
 10
68.75
 20
16.751953
 42
-0.358284
 10
106.460938
 20
16.751953
 42
0.219317
 10
137.476563
 20
5.535156
 42
-0.363255
 10
140.327148
 20
3.531006
 10
141.273438
 20
0.0
 10
148.382813
 20
0.0
 10
149.914063
 20
6.931641
 42
-0.211179
 10
152.210449
 20
9.783936
 42
0.150435
 10
168.839844
 20
26.09375
 42
-0.276038
 10
172.027344
 20
27.997437
 10
190.277344
 20
28.0
 10
194.511719
 20
-57.148438
 10
181.914063
 20
-36.464844
 10
180.0
 20
0.0
 10
19.582031
 20
0.0
 10
16.957031
 20
7.205078
  0
ENDBLK
  5
174
100
AcDbEntity
  8
0
390
0
100
AcDbBlockEnd
  0
BLOCK
  5
185
100
AcDbEntity
  8
0
390
0
100
AcDbBlockBegin
  2
44444____A1_100_0
 70
     0
 10
0.0
 20
0.0
 30
0.0
  3
44444____A1_100_0
  1

  0
LWPOLYLINE
  5
186
100
AcDbEntity
  8
LAYER47
370
    18
390
0
  6
Continuous
 62
     7
100
AcDbPolyline
 90
        2
 70
     0
 10
0.0
 20
6.0
 10
0.0
 20
-15.0
  0
CIRCLE
  5
187
100
AcDbEntity
  8
LAYER47
370
    18
390
0
  6
Continuous
 62
     7
100
AcDbCircle
 10
0.0
 20
0.0
 30
0.0
 40
4.0
  0
ENDBLK
  5
188
100
AcDbEntity
  8
0
390
0
100
AcDbBlockEnd
  0
BLOCK
  5
1A2
100
AcDbEntity
  8
0
390
0
100
AcDbBlockBegin
  2
TSCRC3FC3F___A1_100_0
 70
     0
 10
0.0
 20
0.0
 30
0.0
  3
TSCRC3FC3F___A1_100_0
  1

  0
LWPOLYLINE
  5
1A3
100
AcDbEntity
  8
LAYER47
370
    18
390
0
  6
Continuous
 62
     7
100
AcDbPolyline
 90
        2
 70
     0
 10
-0.000056
 20
8.999988
 10
-0.000057
 20
-16.99991
  0
LWPOLYLINE
  5
1A4
100
AcDbEntity
  8
LAYER47
370
    18
390
0
  6
Continuous
 62
     7
100
AcDbPolyline
 90
        5
 70
     0
 10
6.00087
 20
0.000109
 10
-0.00002
 20
-6.00005
 10
-6.001042
 20
0.000063
 10
0.00002
 20
6.00005
 10
6.00087
 20
0.000109
  0
ENDBLK
  5
1A5
100
AcDbEntity
  8
0
390
0
100
AcDbBlockEnd
  0
BLOCK
  5
1AC
100
AcDbEntity
  8
0
390
0
100
AcDbBlockBegin
  2
11111____A1_100_0
 70
     0
 10
0.0
 20
0.0
 30
0.0
  3
11111____A1_100_0
  1

  0
LWPOLYLINE
  5
1AD
100
AcDbEntity
  8
LAYER47
370
    18
390
0
  6
Continuous
 62
     7
100
AcDbPolyline
 90
        2
 70
     0
 10
-0.000173
 20
5.000049
 10
-0.000064
 20
-15.000038
  0
ENDBLK
  5
1AE
100
AcDbEntity
  8
0
390
0
100
AcDbBlockEnd
  0
BLOCK
  5
1BF
100
AcDbEntity
  8
0
390
0
100
AcDbBlockBegin
  2
D47CJANK_A1_S_0
 70
     0
 10
0.0
 20
0.0
 30
0.0
  3
D47CJANK_A1_S_0
  1

  0
LWPOLYLINE
  5
1C0
100
AcDbEntity
  8
LAYER47
370
    25
390
0
  6
Continuous
 62
    92
100
AcDbPolyline
 90
       43
 70
     1
 10
-46.453245
 20
38.000093
 10
-45.19543
 20
32.609464
 10
-9.070422
 20
32.609484
 10
-7.332009
 20
37.999967
 10
-1.761827
 20
38.000078
 10
3.144542
 20
19.289062
 10
20.300665
 20
19.289164
 10
26.968701
 20
38.000029
 10
37.113252
 20
38.00001
 10
38.000029
 20
31.226532
 10
37.999954
 20
27.554725
 10
31.316372
 20
9.187522
 10
15.624923
 20
9.187578
 10
12.285196
 20
-0.000036
 10
3.097594
 20
0.000039
 10
0.511583
 20
13.32041
 10
-34.664142
 20
13.320384
 10
-38.234495
 20
0.000074
 10
-46.500119
 20
0.00012
 10
-53.875125
 20
27.515711
 10
-122.710956
 20
27.515651
 10
-130.086047
 20
0.00011
 10
-137.433584
 20
0.000026
 10
-144.804738
 20
27.515671
 10
-214.562547
 20
27.515641
 10
-221.933598
 20
-0.000002
 10
-229.281323
 20
0.000069
 10
-236.656329
 20
27.51566
 10
-301.535129
 20
27.515564
 10
-309.148485
 20
0.000035
 10
-316.484464
 20
0.000114
 10
-324.113334
 20
27.515653
 10
-339.468818
 20
27.515673
 10
-345.351604
 20
6.089907
 10
-357.628946
 20
6.089849
 10
-363.621104
 20
27.515669
 10
-380.140684
 20
27.515675
 10
-390.894588
 20
-1.378895
 10
-400.19545
 20
-1.37881
 10
-401.000011
 20
2.757808
 10
-401.000105
 20
6.429795
 10
-395.367267
 20
27.789123
 42
-0.339454
 10
-382.058701
 20
38.000893
  0
ENDBLK
  5
1C1
100
AcDbEntity
  8
0
390
0
100
AcDbBlockEnd
  0
BLOCK
  5
1C6
100
AcDbEntity
  8
0
390
0
100
AcDbBlockBegin
  2
D47CJANK_M_A1_S_0
 70
     0
 10
0.0
 20
0.0
 30
0.0
  3
D47CJANK_M_A1_S_0
  1

  0
LWPOLYLINE
  5
1C7
100
AcDbEntity
  8
LAYER47
370
    25
390
0
  6
Continuous
 62
    92
100
AcDbPolyline
 90
       43
 70
     1
 10
-46.453057
 20
-37.999937
 10
-45.195242
 20
-32.609308
 10
-9.070234
 20
-32.609328
 10
-7.332009
 20
-37.999967
 10
-1.761639
 20
-37.999922
 10
3.144542
 20
-19.289062
 10
20.300853
 20
-19.289008
 10
26.968701
 20
-38.000029
 10
37.113252
 20
-38.00001
 10
38.000029
 20
-31.226532
 10
37.999954
 20
-27.554725
 10
31.316372
 20
-9.187522
 10
15.625111
 20
-9.187422
 10
12.285196
 20
0.000036
 10
3.097781
 20
0.000117
 10
0.511771
 20
-13.320254
 10
-34.663954
 20
-13.320228
 10
-38.234307
 20
0.000082
 10
-46.499931
 20
0.000036
 10
-53.874937
 20
-27.515555
 10
-122.710956
 20
-27.515651
 10
-130.085859
 20
0.000046
 10
-137.433584
 20
-0.000026
 10
-144.80455
 20
-27.515515
 10
-214.562547
 20
-27.515641
 10
-221.933598
 20
0.000002
 10
-229.281135
 20
0.000087
 10
-236.656141
 20
-27.515504
 10
-301.535129
 20
-27.515564
 10
-309.148485
 20
-0.000035
 10
-316.484276
 20
0.000042
 10
-324.113334
 20
-27.515653
 10
-339.46863
 20
-27.515517
 10
-345.351416
 20
-6.089751
 10
-357.628946
 20
-6.089849
 10
-363.621104
 20
-27.515669
 10
-380.140496
 20
-27.515519
 10
-390.894588
 20
1.378895
 10
-400.195262
 20
1.378966
 10
-401.000011
 20
-2.757808
 10
-400.999917
 20
-6.429639
 10
-395.36708
 20
-27.788967
 42
0.339454
 10
-382.058513
 20
-38.000737
  0
ENDBLK
  5
1C8
100
AcDbEntity
  8
0
390
0
100
AcDbBlockEnd
  0
BLOCK
  5
1CB
100
AcDbEntity
  8
0
390
0
100
AcDbBlockBegin
  2
D47CJ1NK_A1_S_0
 70
     0
 10
0.0
 20
0.0
 30
0.0
  3
D47CJ1NK_A1_S_0
  1

  0
LWPOLYLINE
  5
1CC
100
AcDbEntity
  8
LAYER47
370
    25
390
0
  6
Continuous
 62
    92
100
AcDbPolyline
 90
       53
 70
     1
 10
-254.714844
 20
6.429688
 10
-255.359375
 20
10.101563
 10
-255.359375
 20
13.777344
 10
-253.691406
 20
25.71875
 10
-248.519531
 20
25.71875
 10
-245.199219
 20
16.53125
 10
-235.003906
 20
16.53125
 10
-232.558594
 20
25.71875
 10
-228.910156
 20
25.71875
 10
-225.589844
 20
16.53125
 10
-212.707031
 20
16.53125
 10
-209.980469
 20
36.058594
 42
-0.329437
 10
-207.367188
 20
37.997559
 10
-203.738281
 20
38.0
 42
-0.329437
 10
-201.126221
 20
36.058228
 42
0.630762
 10
-148.466309
 20
27.369385
 42
-0.221428
 10
-146.476318
 20
28.5271
 42
0.27771
 10
-134.718018
 20
37.154297
 42
-0.204442
 10
-132.75
 20
37.996094
 10
-118.960938
 20
38.0
 42
-0.204442
 10
-116.989014
 20
37.15564
 42
0.277721
 10
-105.234619
 20
28.528076
 42
-0.221386
 10
-103.241455
 20
27.371582
 42
0.63076
 10
-50.581787
 20
36.057373
 42
-0.330039
 10
-47.964844
 20
37.996948
 10
-2.65625
 20
38.0
 42
-0.364553
 10
-0.858887
 20
36.484497
 10
0.0
 20
31.226563
 10
0.0
 20
27.554688
 10
-1.152344
 20
19.289063
 10
-6.15625
 20
19.289063
 10
-9.140625
 20
27.554688
 10
-20.597656
 20
27.554688
 10
-22.796875
 20
19.289063
 10
-26.445313
 20
19.289063
 10
-29.433594
 20
27.554688
 10
-38.585938
 20
27.554688
 42
0.374406
 10
-42.197266
 20
24.390381
 10
-45.601563
 20
0.0
 10
-52.898438
 20
0.0
 10
-54.800781
 20
7.15625
 42
0.487317
 10
-60.065674
 20
9.435913
 42
-0.358483
 10
-109.530029
 20
19.001099
 42
-0.152237
 10
-121.884033
 20
26.336426
 42
0.212459
 10
-124.570313
 20
27.5354
 10
-127.140625
 20
27.554688
 42
0.212433
 10
-129.8396
 20
26.351196
 42
-0.152249
 10
-142.195801
 20
19.017334
 42
-0.393962
 10
-195.582275
 20
11.902222
 42
0.524246
 10
-201.211426
 20
9.851685
 10
-203.832031
 20
0.0
 10
-211.125
 20
0.0
 10
-212.835938
 20
6.429688
  0
ENDBLK
  5
1CD
100
AcDbEntity
  8
0
390
0
100
AcDbBlockEnd
  0
BLOCK
  5
1D0
100
AcDbEntity
  8
0
390
0
100
AcDbBlockBegin
  2
D47CJ2NK_A1_S_0
 70
     0
 10
0.0
 20
0.0
 30
0.0
  3
D47CJ2NK_A1_S_0
  1

  0
LWPOLYLINE
  5
1D1
100
AcDbEntity
  8
LAYER47
370
    25
390
0
  6
Continuous
 62
    92
100
AcDbPolyline
 90
       47
 70
     1
 10
-0.957031
 20
38.0
 10
0.0
 20
32.566406
 10
0.0
 20
28.943359
 10
-1.332031
 20
21.382813
 42
-0.739569
 10
-4.498779
 20
20.777954
 10
-7.121094
 20
28.0
 10
-19.554688
 20
28.0
 10
-21.738281
 20
19.884766
 10
-24.398438
 20
19.884766
 10
-27.351563
 20
28.0
 10
-36.652344
 20
28.0
 42
0.373887
 10
-42.033203
 20
23.32251
 10
-45.179688
 20
0.0
 10
-52.546875
 20
0.0
 10
-53.925781
 20
6.416016
 42
0.470551
 10
-60.273926
 20
9.321045
 42
-0.264242
 10
-98.960938
 20
11.734375
 10
-105.097656
 20
16.751953
 42
0.176576
 10
-119.3125
 20
22.603516
 10
-128.59375
 20
22.603516
 42
0.176594
 10
-142.8125
 20
16.751953
 42
-0.219187
 10
-172.640625
 20
5.626953
 42
0.370239
 10
-177.117432
 20
1.785156
 10
-177.390625
 20
0.0
 10
-184.730469
 20
0.0
 10
-186.261719
 20
6.894531
 42
0.211179
 10
-188.55835
 20
9.746826
 42
-0.145123
 10
-204.722656
 20
25.255859
 42
0.269512
 10
-209.445313
 20
28.001221
 10
-217.3125
 20
28.037109
 42
0.399422
 10
-224.558838
 20
21.15625
 10
-228.59375
 20
-57.154297
 42
-0.399214
 10
-231.589844
 20
-60.0
 10
-243.039063
 20
-60.0
 10
-238.339844
 20
38.0
 10
-201.140625
 20
38.0
 42
-0.329513
 10
-198.543213
 20
36.079956
 42
0.622061
 10
-146.449219
 20
27.849609
 42
-0.221404
 10
-144.461182
 20
28.997559
 42
0.256995
 10
-133.215332
 20
36.531494
 42
-0.280379
 10
-130.800781
 20
38.001343
 10
-117.105469
 20
38.0
 42
-0.280358
 10
-114.692871
 20
36.532471
 42
0.256995
 10
-103.445313
 20
28.996216
 42
-0.221451
 10
-101.459473
 20
27.850586
 42
0.622069
 10
-49.367188
 20
36.080078
 42
-0.32952
 10
-46.765625
 20
38.004028
  0
LWPOLYLINE
  5
1D2
100
AcDbEntity
  8
LAYER47
370
    13
390
0
  6
Continuous
 62
   213
100
AcDbPolyline
 90
        4
 70
     0
 10
-148.949219
 20
0.0
 42
0.221695
 10
-140.62207
 20
3.883667
 42
-0.473471
 10
-107.28418
 20
3.883667
 42
0.221694
 10
-98.960938
 20
0.00293
  0
LWPOLYLINE
  5
1D3
100
AcDbEntity
  8
LAYER47
370
    13
390
0
  6
Continuous
 62
     9
100
AcDbPolyline
 90
        4
 70
     0
 10
-148.949219
 20
0.0
 42
0.221695
 10
-140.62207
 20
3.883667
 42
-0.473471
 10
-107.28418
 20
3.883667
 42
0.221694
 10
-98.960938
 20
0.003052
  0
LWPOLYLINE
  5
1D4
100
AcDbEntity
  8
LAYER47
370
    13
390
0
  6
Continuous
 62
    12
100
AcDbPolyline
 90
        4
 70
     0
 10
-148.949219
 20
0.0
 42
0.221695
 10
-140.62207
 20
3.883667
 42
-0.473471
 10
-107.28418
 20
3.883667
 42
0.221694
 10
-98.960938
 20
0.003052
  0
LWPOLYLINE
  5
1D5
100
AcDbEntity
  8
LAYER47
370
    13
390
0
  6
DOT
 62
   213
100
AcDbPolyline
 90
        4
 70
     0
 10
-148.949219
 20
0.0
 42
0.221695
 10
-140.62207
 20
3.883667
 42
-0.473471
 10
-107.28418
 20
3.883667
 42
0.221694
 10
-98.960938
 20
0.003052
  0
ENDBLK
  5
1D6
100
AcDbEntity
  8
0
390
0
100
AcDbBlockEnd
  0
BLOCK
  5
1D9
100
AcDbEntity
  8
0
390
0
100
AcDbBlockBegin
  2
D47CJ3NK_A1_S_0
 70
     0
 10
0.0
 20
0.0
 30
0.0
  3
D47CJ3NK_A1_S_0
  1

  0
LWPOLYLINE
  5
1DA
100
AcDbEntity
  8
LAYER47
370
    25
390
0
  6
Continuous
 62
    92
100
AcDbPolyline
 90
       50
 70
     1
 10
-37.0
 20
7.205078
 42
-0.414214
 10
-40.0
 20
10.205078
 10
-40.0
 20
15.035156
 10
-38.289063
 20
24.728516
 42
-0.68624
 10
-34.308594
 20
25.001953
 10
-31.460938
 20
17.167969
 10
-20.792969
 20
17.167969
 10
-18.828125
 20
24.501953
 42
-0.767316
 10
-15.328125
 20
24.501953
 10
-12.652344
 20
17.167969
 10
1.351563
 20
17.167969
 10
3.914063
 20
35.417969
 42
-0.373891
 10
6.886719
 20
38.0
 10
10.417969
 20
38.0
 42
-0.329506
 10
13.015137
 20
36.079956
 42
0.622063
 10
65.109375
 20
27.849609
 42
-0.221416
 10
67.097412
 20
28.997559
 42
0.256995
 10
78.343262
 20
36.531494
 42
-0.280381
 10
80.757813
 20
38.001343
 10
94.453125
 20
38.0
 42
-0.28037
 10
96.866455
 20
36.530884
 42
0.256995
 10
108.113281
 20
28.996216
 42
-0.221427
 10
110.100342
 20
27.848877
 42
0.624795
 10
162.03125
 20
36.128906
 42
-0.283669
 10
164.792969
 20
37.997559
 10
199.15625
 20
38.0
 42
-0.398646
 10
202.152344
 20
35.160156
 10
207.242188
 20
-60.0
 10
197.507813
 20
-60.0
 42
-0.399729
 10
194.511719
 20
-57.148438
 10
190.277344
 20
28.0
 10
172.027344
 20
28.0
 42
0.27604
 10
168.837402
 20
26.094971
 42
-0.150435
 10
152.210938
 20
9.783203
 42
0.211179
 10
149.914795
 20
6.931396
 10
148.382813
 20
0.0
 10
141.273438
 20
0.0
 10
140.328125
 20
3.53125
 42
0.363255
 10
137.476318
 20
5.536255
 42
-0.219317
 10
106.460938
 20
16.751953
 42
0.358284
 10
68.75
 20
16.751953
 42
-0.185893
 10
42.792969
 20
5.431641
 42
0.396225
 10
40.341309
 20
3.031128
 10
39.746094
 20
0.0
 10
32.214844
 20
0.0
 10
31.171875
 20
5.285156
 42
0.257204
 10
29.355713
 20
7.176392
 42
-0.078293
 10
18.355469
 20
12.601563
 42
0.521708
 10
12.765137
 20
10.579346
 10
11.863281
 20
7.205078
  0
LWPOLYLINE
  5
1DB
100
AcDbEntity
  8
LAYER47
370
    13
390
0
  6
Continuous
 62
   213
100
AcDbPolyline
 90
        4
 70
     0
 10
62.609375
 20
0.0
 42
0.221695
 10
70.936523
 20
3.883667
 42
-0.474271
 10
104.274414
 20
3.883667
 42
0.221695
 10
112.601563
 20
0.0
  0
LWPOLYLINE
  5
1DC
100
AcDbEntity
  8
LAYER47
370
    13
390
0
  6
Continuous
 62
     9
100
AcDbPolyline
 90
        4
 70
     0
 10
62.609375
 20
0.0
 42
0.221695
 10
70.936523
 20
3.883667
 42
-0.474271
 10
104.274414
 20
3.883667
 42
0.221695
 10
112.601563
 20
0.0
  0
LWPOLYLINE
  5
1DD
100
AcDbEntity
  8
LAYER47
370
    13
390
0
  6
Continuous
 62
    12
100
AcDbPolyline
 90
        4
 70
     0
 10
62.609375
 20
0.0
 42
0.221695
 10
70.936523
 20
3.883667
 42
-0.474271
 10
104.274414
 20
3.883667
 42
0.221695
 10
112.601563
 20
0.0
  0
LWPOLYLINE
  5
1DE
100
AcDbEntity
  8
LAYER47
370
    13
390
0
  6
DOT
 62
   213
100
AcDbPolyline
 90
        4
 70
     0
 10
62.609375
 20
0.0
 42
0.221695
 10
70.936523
 20
3.883667
 42
-0.474271
 10
104.274414
 20
3.883667
 42
0.221695
 10
112.601563
 20
0.0
  0
ENDBLK
  5
1DF
100
AcDbEntity
  8
0
390
0
100
AcDbBlockEnd
  0
BLOCK
  5
1E2
100
AcDbEntity
  8
0
390
0
100
AcDbBlockBegin
  2
A47ZBANK_A1_H_0
 70
     0
 10
0.0
 20
0.0
 30
0.0
  3
A47ZBANK_A1_H_0
  1

  0
LWPOLYLINE
  5
1E3
100
AcDbEntity
  8
LAYER47
370
    18
390
0
  6
DASHED
 62
     7
100
AcDbPolyline
 90
        3
 70
     0
 10
-114.217773
 20
0.003906
 42
-0.162884
 10
-100.411133
 20
41.108826
 42
-0.234761
 10
0.0
 20
91.003998
  0
LWPOLYLINE
  5
1E4
100
AcDbEntity
  8
LAYER47
370
    18
390
0
  6
DASHED
 62
     7
100
AcDbPolyline
 90
        3
 70
     0
 10
114.216797
 20
0.003906
 42
0.162884
 10
100.410156
 20
41.109009
 42
0.234761
 10
0.0
 20
91.00351
  0
ENDBLK
  5
1E5
100
AcDbEntity
  8
0
390
0
100
AcDbBlockEnd
  0
BLOCK
  5
1E8
100
AcDbEntity
  8
0
390
0
100
AcDbBlockBegin
  2
P47ZB1NK_A1_H_0
 70
     0
 10
0.0
 20
0.0
 30
0.0
  3
P47ZB1NK_A1_H_0
  1

  0
LWPOLYLINE
  5
1E9
100
AcDbEntity
  8
LAYER47
370
    18
390
0
  6
DASHED
 62
     7
100
AcDbPolyline
 90
       10
 70
     0
 10
-8.0
 20
-114.911743
 42
0.500341
 10
-19.044922
 20
-114.564941
 10
-34.693359
 20
-114.073975
 42
0.500387
 10
-45.742188
 20
-113.726257
 10
-56.785156
 20
-113.380615
 10
-56.785156
 20
113.380615
 10
-45.740234
 20
113.727539
 42
0.500395
 10
-34.695313
 20
114.075012
 10
-19.044922
 20
114.565186
 42
0.500354
 10
-8.0
 20
114.911865
  0
LWPOLYLINE
  5
1EA
100
AcDbEntity
  8
LAYER47
370
    18
390
0
  6
DASHED
 62
     7
100
AcDbPolyline
 90
        2
 70
     0
 10
-45.740234
 20
-113.727295
 10
-45.740234
 20
113.727539
  0
LWPOLYLINE
  5
1EB
100
AcDbEntity
  8
LAYER47
370
    18
390
0
  6
DASHED
 62
     7
100
AcDbPolyline
 90
        2
 70
     0
 10
-34.693359
 20
-114.073975
 10
-34.693359
 20
114.073975
  0
LWPOLYLINE
  5
1EC
100
AcDbEntity
  8
LAYER47
370
    18
390
0
  6
DASHED
 62
     7
100
AcDbPolyline
 90
        2
 70
     0
 10
-19.044922
 20
-114.564941
 10
-19.044922
 20
114.565186
  0
ENDBLK
  5
1ED
100
AcDbEntity
  8
0
390
0
100
AcDbBlockEnd
  0
BLOCK
  5
1F0
100
AcDbEntity
  8
0
390
0
100
AcDbBlockBegin
  2
P47ZB2NK_A1_H_0
 70
     0
 10
0.0
 20
0.0
 30
0.0
  3
P47ZB2NK_A1_H_0
  1

  0
LWPOLYLINE
  5
1F1
100
AcDbEntity
  8
LAYER47
370
    18
390
0
  6
DASHED
 62
     7
100
AcDbPolyline
 90
       10
 70
     0
 10
0.0
 20
-114.911743
 42
0.500341
 10
-11.044922
 20
-114.564941
 10
-26.693359
 20
-114.073975
 42
0.500387
 10
-37.742188
 20
-113.726257
 10
-50.0
 20
-113.380615
 10
-50.0
 20
113.380615
 10
-37.740234
 20
113.727539
 42
0.500395
 10
-26.695313
 20
114.075012
 10
-11.044922
 20
114.565186
 42
0.500354
 10
0.0
 20
114.911865
  0
LWPOLYLINE
  5
1F2
100
AcDbEntity
  8
LAYER47
370
    18
390
0
  6
DASHED
 62
     7
100
AcDbPolyline
 90
        2
 70
     0
 10
-37.740234
 20
-113.727295
 10
-37.740234
 20
113.727539
  0
LWPOLYLINE
  5
1F3
100
AcDbEntity
  8
LAYER47
370
    18
390
0
  6
DASHED
 62
     7
100
AcDbPolyline
 90
        2
 70
     0
 10
-26.693359
 20
-114.073975
 10
-26.693359
 20
114.073975
  0
LWPOLYLINE
  5
1F4
100
AcDbEntity
  8
LAYER47
370
    18
390
0
  6
DASHED
 62
     7
100
AcDbPolyline
 90
        2
 70
     0
 10
-11.044922
 20
-114.564941
 10
-11.044922
 20
114.565186
  0
ENDBLK
  5
1F5
100
AcDbEntity
  8
0
390
0
100
AcDbBlockEnd
  0
BLOCK
  5
1F8
100
AcDbEntity
  8
0
390
0
100
AcDbBlockBegin
  2
A47ZB1NK_A1_H_0
 70
     0
 10
0.0
 20
0.0
 30
0.0
  3
A47ZB1NK_A1_H_0
  1

  0
LWPOLYLINE
  5
1F9
100
AcDbEntity
  8
LAYER47
370
    18
390
0
  6
DASHED
 62
     7
100
AcDbPolyline
 90
        4
 70
     0
 10
0.0
 20
0.0
 10
-58.0
 20
0.0
 10
-58.0
 20
88.296875
 10
0.0
 20
89.890625
  0
ENDBLK
  5
1FA
100
AcDbEntity
  8
0
390
0
100
AcDbBlockEnd
  0
BLOCK
  5
1FD
100
AcDbEntity
  8
0
390
0
100
AcDbBlockBegin
  2
A47ZB2NK_A1_H_0
 70
     0
 10
0.0
 20
0.0
 30
0.0
  3
A47ZB2NK_A1_H_0
  1

  0
LWPOLYLINE
  5
1FE
100
AcDbEntity
  8
LAYER47
370
    18
390
0
  6
DASHED
 62
     7
100
AcDbPolyline
 90
        4
 70
     0
 10
0.0
 20
0.0
 10
-50.0
 20
0.0
 10
-50.0
 20
88.296875
 10
0.0
 20
89.890625
  0
ENDBLK
  5
1FF
100
AcDbEntity
  8
0
390
0
100
AcDbBlockEnd
  0
BLOCK
  5
202
100
AcDbEntity
  8
0
390
0
100
AcDbBlockBegin
  2
*D31
 70
     1
 10
0.0
 20
0.0
 30
0.0
  3
*D31
  1

  0
ENDBLK
  5
203
100
AcDbEntity
  8
0
390
0
100
AcDbBlockEnd
  0
BLOCK
  5
207
100
AcDbEntity
  8
0
390
0
100
AcDbBlockBegin
  2
*D32
 70
     1
 10
0.0
 20
0.0
 30
0.0
  3
*D32
  1

  0
ENDBLK
  5
208
100
AcDbEntity
  8
0
390
0
100
AcDbBlockEnd
  0
BLOCK
  5
20B
100
AcDbEntity
  8
0
390
0
100
AcDbBlockBegin
  2
*D33
 70
     1
 10
0.0
 20
0.0
 30
0.0
  3
*D33
  1

  0
ENDBLK
  5
20C
100
AcDbEntity
  8
0
390
0
100
AcDbBlockEnd
  0
BLOCK
  5
20F
100
AcDbEntity
  8
0
390
0
100
AcDbBlockBegin
  2
*D34
 70
     1
 10
0.0
 20
0.0
 30
0.0
  3
*D34
  1

  0
ENDBLK
  5
210
100
AcDbEntity
  8
0
390
0
100
AcDbBlockEnd
  0
BLOCK
  5
213
100
AcDbEntity
  8
0
390
0
100
AcDbBlockBegin
  2
*D35
 70
     1
 10
0.0
 20
0.0
 30
0.0
  3
*D35
  1

  0
ENDBLK
  5
214
100
AcDbEntity
  8
0
390
0
100
AcDbBlockEnd
  0
BLOCK
  5
218
100
AcDbEntity
  8
0
390
0
100
AcDbBlockBegin
  2
*D36
 70
     1
 10
0.0
 20
0.0
 30
0.0
  3
*D36
  1

  0
ENDBLK
  5
219
100
AcDbEntity
  8
0
390
0
100
AcDbBlockEnd
  0
BLOCK
  5
21D
100
AcDbEntity
  8
0
390
0
100
AcDbBlockBegin
  2
*D37
 70
     1
 10
0.0
 20
0.0
 30
0.0
  3
*D37
  1

  0
ENDBLK
  5
21E
100
AcDbEntity
  8
0
390
0
100
AcDbBlockEnd
  0
BLOCK
  5
221
100
AcDbEntity
  8
0
390
0
100
AcDbBlockBegin
  2
*D38
 70
     1
 10
0.0
 20
0.0
 30
0.0
  3
*D38
  1

  0
ENDBLK
  5
222
100
AcDbEntity
  8
0
390
0
100
AcDbBlockEnd
  0
BLOCK
  5
225
100
AcDbEntity
  8
0
390
0
100
AcDbBlockBegin
  2
*D39
 70
     1
 10
0.0
 20
0.0
 30
0.0
  3
*D39
  1

  0
LWPOLYLINE
  5
226
100
AcDbEntity
  8
LAYER47
370
    13
390
0
  6
Continuous
 62
   213
100
AcDbPolyline
 90
        2
 70
     0
 10
1667.0
 20
-1350.891113
 10
1882.0
 20
-1350.891113
  0
LWPOLYLINE
  5
22C
100
AcDbEntity
  8
LAYER47
370
    13
390
0
  6
Continuous
 62
   213
100
AcDbPolyline
 90
        2
 70
     0
 10
1667.0
 20
-1341.891113
 10
1667.0
 20
-1367.891113
  0
LWPOLYLINE
  5
22D
100
AcDbEntity
  8
LAYER47
370
    13
390
0
  6
Continuous
 62
   213
100
AcDbPolyline
 90
        4
 70
     1
 10
1673.0
 20
-1350.891113
 10
1667.0
 20
-1356.891113
 10
1661.0
 20
-1350.891113
 10
1667.0
 20
-1344.891113
  0
LWPOLYLINE
  5
233
100
AcDbEntity
  8
LAYER47
370
    13
390
0
  6
Continuous
 62
   213
100
AcDbPolyline
 90
        2
 70
     0
 10
1882.0
 20
-1341.891113
 10
1882.0
 20
-1367.891113
  0
LWPOLYLINE
  5
234
100
AcDbEntity
  8
LAYER47
370
    13
390
0
  6
Continuous
 62
   213
100
AcDbPolyline
 90
        4
 70
     1
 10
1876.0
 20
-1350.891113
 10
1882.0
 20
-1356.891113
 10
1888.0
 20
-1350.891113
 10
1882.0
 20
-1344.891113
  0
MTEXT
  5
235
100
AcDbEntity
  8
LAYER47
390
0
  6
Continuous
 62
     7
100
AcDbMText
 10
1750.496948
 20
-1343.991089
 30
0.0
 40
18.0
 41
0.0
 71
     7
 72
     1
  1
215
 73
     1
 44
1.2
  0
ENDBLK
  5
236
100
AcDbEntity
  8
0
390
0
100
AcDbBlockEnd
  0
BLOCK
  5
228
100
AcDbEntity
  8
0
390
0
100
AcDbBlockBegin
  2
X00H1____A1_100_0
 70
     0
 10
0.0
 20
0.0
 30
0.0
  3
X00H1____A1_100_0
  1

  0
LWPOLYLINE
  5
229
100
AcDbEntity
  8
LAYER47
370
    13
390
0
  6
Continuous
 62
   213
100
AcDbPolyline
 90
        2
 70
     0
 10
0.0
 20
9.0
 10
0.0
 20
-17.0
  0
LWPOLYLINE
  5
22A
100
AcDbEntity
  8
LAYER47
370
    13
390
0
  6
Continuous
 62
   213
100
AcDbPolyline
 90
        4
 70
     1
 10
6.0
 20
0.0
 10
0.0
 20
-6.0
 10
-6.0
 20
0.0
 10
0.0
 20
6.0
  0
ENDBLK
  5
22B
100
AcDbEntity
  8
0
390
0
100
AcDbBlockEnd
  0
BLOCK
  5
22F
100
AcDbEntity
  8
0
390
0
100
AcDbBlockBegin
  2
X00H1____M_A1_100_0
 70
     0
 10
0.0
 20
0.0
 30
0.0
  3
X00H1____M_A1_100_0
  1

  0
LWPOLYLINE
  5
230
100
AcDbEntity
  8
LAYER47
370
    13
390
0
  6
Continuous
 62
   213
100
AcDbPolyline
 90
        2
 70
     0
 10
0.0
 20
-9.0
 10
0.0
 20
17.0
  0
LWPOLYLINE
  5
231
100
AcDbEntity
  8
LAYER47
370
    13
390
0
  6
Continuous
 62
   213
100
AcDbPolyline
 90
        4
 70
     1
 10
6.0
 20
0.0
 10
0.0
 20
6.0
 10
-6.0
 20
0.0
 10
0.0
 20
-6.0
  0
ENDBLK
  5
232
100
AcDbEntity
  8
0
390
0
100
AcDbBlockEnd
  0
BLOCK
  5
23A
100
AcDbEntity
  8
0
390
0
100
AcDbBlockBegin
  2
*D42
 70
     1
 10
0.0
 20
0.0
 30
0.0
  3
*D42
  1

  0
LWPOLYLINE
  5
23B
100
AcDbEntity
  8
LAYER47
370
    13
390
0
  6
Continuous
 62
   213
100
AcDbPolyline
 90
        2
 70
     0
 10
1428.0
 20
-1350.891113
 10
1450.0
 20
-1350.891113
  0
LWPOLYLINE
  5
23C
100
AcDbEntity
  8
LAYER47
370
    13
390
0
  6
Continuous
 62
   213
100
AcDbPolyline
 90
        2
 70
     0
 10
1428.0
 20
-1341.891113
 10
1428.0
 20
-1367.891113
  0
LWPOLYLINE
  5
23D
100
AcDbEntity
  8
LAYER47
370
    13
390
0
  6
Continuous
 62
   213
100
AcDbPolyline
 90
        4
 70
     1
 10
1434.0
 20
-1350.891113
 10
1428.0
 20
-1356.891113
 10
1422.0
 20
-1350.891113
 10
1428.0
 20
-1344.891113
  0
LWPOLYLINE
  5
23E
100
AcDbEntity
  8
LAYER47
370
    13
390
0
  6
Continuous
 62
   213
100
AcDbPolyline
 90
        2
 70
     0
 10
1450.0
 20
-1341.891113
 10
1450.0
 20
-1367.891113
  0
LWPOLYLINE
  5
23F
100
AcDbEntity
  8
LAYER47
370
    13
390
0
  6
Continuous
 62
   213
100
AcDbPolyline
 90
        4
 70
     1
 10
1444.0
 20
-1350.891113
 10
1450.0
 20
-1356.891113
 10
1456.0
 20
-1350.891113
 10
1450.0
 20
-1344.891113
  0
MTEXT
  5
240
100
AcDbEntity
  8
LAYER47
390
0
  6
Continuous
 62
     7
100
AcDbMText
 10
1423.996948
 20
-1343.991089
 30
0.0
 40
18.0
 41
0.0
 71
     7
 72
     1
  1
22
 73
     1
 44
1.2
  0
ENDBLK
  5
241
100
AcDbEntity
  8
0
390
0
100
AcDbBlockEnd
  0
BLOCK
  5
244
100
AcDbEntity
  8
0
390
0
100
AcDbBlockBegin
  2
*D43
 70
     1
 10
0.0
 20
0.0
 30
0.0
  3
*D43
  1

  0
LWPOLYLINE
  5
245
100
AcDbEntity
  8
LAYER47
370
    13
390
0
  6
Continuous
 62
   213
100
AcDbPolyline
 90
        2
 70
     0
 10
1450.0
 20
-1350.891113
 10
1667.0
 20
-1350.891113
  0
LWPOLYLINE
  5
246
100
AcDbEntity
  8
LAYER47
370
    13
390
0
  6
Continuous
 62
   213
100
AcDbPolyline
 90
        2
 70
     0
 10
1450.0
 20
-1341.891113
 10
1450.0
 20
-1367.891113
  0
LWPOLYLINE
  5
247
100
AcDbEntity
  8
LAYER47
370
    13
390
0
  6
Continuous
 62
   213
100
AcDbPolyline
 90
        4
 70
     1
 10
1456.0
 20
-1350.891113
 10
1450.0
 20
-1356.891113
 10
1444.0
 20
-1350.891113
 10
1450.0
 20
-1344.891113
  0
LWPOLYLINE
  5
248
100
AcDbEntity
  8
LAYER47
370
    13
390
0
  6
Continuous
 62
   213
100
AcDbPolyline
 90
        2
 70
     0
 10
1667.0
 20
-1341.891113
 10
1667.0
 20
-1367.891113
  0
LWPOLYLINE
  5
249
100
AcDbEntity
  8
LAYER47
370
    13
390
0
  6
Continuous
 62
   213
100
AcDbPolyline
 90
        4
 70
     1
 10
1661.0
 20
-1350.891113
 10
1667.0
 20
-1356.891113
 10
1673.0
 20
-1350.891113
 10
1667.0
 20
-1344.891113
  0
MTEXT
  5
24A
100
AcDbEntity
  8
LAYER47
390
0
  6
Continuous
 62
     7
100
AcDbMText
 10
1534.496948
 20
-1343.991089
 30
0.0
 40
18.0
 41
0.0
 71
     7
 72
     1
  1
217
 73
     1
 44
1.2
  0
ENDBLK
  5
24B
100
AcDbEntity
  8
0
390
0
100
AcDbBlockEnd
  0
BLOCK
  5
24E
100
AcDbEntity
  8
0
390
0
100
AcDbBlockBegin
  2
*D44
 70
     1
 10
0.0
 20
0.0
 30
0.0
  3
*D44
  1

  0
LWPOLYLINE
  5
24F
100
AcDbEntity
  8
LAYER47
370
    13
390
0
  6
Continuous
 62
   213
100
AcDbPolyline
 90
        2
 70
     0
 10
1882.0
 20
-1350.891113
 10
2062.0
 20
-1350.891113
  0
LWPOLYLINE
  5
250
100
AcDbEntity
  8
LAYER47
370
    13
390
0
  6
Continuous
 62
   213
100
AcDbPolyline
 90
        2
 70
     0
 10
1882.0
 20
-1341.891113
 10
1882.0
 20
-1367.891113
  0
LWPOLYLINE
  5
251
100
AcDbEntity
  8
LAYER47
370
    13
390
0
  6
Continuous
 62
   213
100
AcDbPolyline
 90
        4
 70
     1
 10
1888.0
 20
-1350.891113
 10
1882.0
 20
-1356.891113
 10
1876.0
 20
-1350.891113
 10
1882.0
 20
-1344.891113
  0
LWPOLYLINE
  5
252
100
AcDbEntity
  8
LAYER47
370
    13
390
0
  6
Continuous
 62
   213
100
AcDbPolyline
 90
        2
 70
     0
 10
2062.0
 20
-1341.891113
 10
2062.0
 20
-1367.891113
  0
LWPOLYLINE
  5
253
100
AcDbEntity
  8
LAYER47
370
    13
390
0
  6
Continuous
 62
   213
100
AcDbPolyline
 90
        4
 70
     1
 10
2056.0
 20
-1350.891113
 10
2062.0
 20
-1356.891113
 10
2068.0
 20
-1350.891113
 10
2062.0
 20
-1344.891113
  0
MTEXT
  5
254
100
AcDbEntity
  8
LAYER47
390
0
  6
Continuous
 62
     7
100
AcDbMText
 10
1947.996948
 20
-1343.991089
 30
0.0
 40
18.0
 41
0.0
 71
     7
 72
     1
  1
180
 73
     1
 44
1.2
  0
ENDBLK
  5
255
100
AcDbEntity
  8
0
390
0
100
AcDbBlockEnd
  0
BLOCK
  5
258
100
AcDbEntity
  8
0
390
0
100
AcDbBlockBegin
  2
*D45
 70
     1
 10
0.0
 20
0.0
 30
0.0
  3
*D45
  1

  0
LWPOLYLINE
  5
259
100
AcDbEntity
  8
LAYER47
370
    13
390
0
  6
Continuous
 62
   213
100
AcDbPolyline
 90
        2
 70
     0
 10
2062.0
 20
-1350.891113
 10
2084.0
 20
-1350.891113
  0
LWPOLYLINE
  5
25A
100
AcDbEntity
  8
LAYER47
370
    13
390
0
  6
Continuous
 62
   213
100
AcDbPolyline
 90
        2
 70
     0
 10
2062.0
 20
-1341.891113
 10
2062.0
 20
-1367.891113
  0
LWPOLYLINE
  5
25B
100
AcDbEntity
  8
LAYER47
370
    13
390
0
  6
Continuous
 62
   213
100
AcDbPolyline
 90
        4
 70
     1
 10
2068.0
 20
-1350.891113
 10
2062.0
 20
-1356.891113
 10
2056.0
 20
-1350.891113
 10
2062.0
 20
-1344.891113
  0
LWPOLYLINE
  5
25C
100
AcDbEntity
  8
LAYER47
370
    13
390
0
  6
Continuous
 62
   213
100
AcDbPolyline
 90
        2
 70
     0
 10
2084.0
 20
-1341.891113
 10
2084.0
 20
-1367.891113
  0
LWPOLYLINE
  5
25D
100
AcDbEntity
  8
LAYER47
370
    13
390
0
  6
Continuous
 62
   213
100
AcDbPolyline
 90
        4
 70
     1
 10
2078.0
 20
-1350.891113
 10
2084.0
 20
-1356.891113
 10
2090.0
 20
-1350.891113
 10
2084.0
 20
-1344.891113
  0
MTEXT
  5
25E
100
AcDbEntity
  8
LAYER47
390
0
  6
Continuous
 62
     7
100
AcDbMText
 10
2057.99707
 20
-1343.991089
 30
0.0
 40
18.0
 41
0.0
 71
     7
 72
     1
  1
22
 73
     1
 44
1.2
  0
ENDBLK
  5
25F
100
AcDbEntity
  8
0
390
0
100
AcDbBlockEnd
  0
BLOCK
  5
262
100
AcDbEntity
  8
0
390
0
100
AcDbBlockBegin
  2
*D46
 70
     1
 10
0.0
 20
0.0
 30
0.0
  3
*D46
  1

  0
LWPOLYLINE
  5
263
100
AcDbEntity
  8
LAYER47
370
    13
390
0
  6
Continuous
 62
   213
100
AcDbPolyline
 90
        2
 70
     0
 10
1391.0
 20
-1484.891113
 10
1391.0
 20
-1424.891113
  0
LWPOLYLINE
  5
264
100
AcDbEntity
  8
LAYER47
370
    13
390
0
  6
Continuous
 62
   213
100
AcDbPolyline
 90
        2
 70
     0
 10
1382.0
 20
-1484.891113
 10
1408.0
 20
-1484.891113
  0
LWPOLYLINE
  5
265
100
AcDbEntity
  8
LAYER47
370
    13
390
0
  6
Continuous
 62
   213
100
AcDbPolyline
 90
        4
 70
     1
 10
1391.0
 20
-1478.891113
 10
1397.0
 20
-1484.891113
 10
1391.0
 20
-1490.891113
 10
1385.0
 20
-1484.891113
  0
LWPOLYLINE
  5
266
100
AcDbEntity
  8
LAYER47
370
    13
390
0
  6
Continuous
 62
   213
100
AcDbPolyline
 90
        2
 70
     0
 10
1382.0
 20
-1424.891113
 10
1408.0
 20
-1424.891113
  0
LWPOLYLINE
  5
267
100
AcDbEntity
  8
LAYER47
370
    13
390
0
  6
Continuous
 62
   213
100
AcDbPolyline
 90
        4
 70
     1
 10
1391.0
 20
-1430.891113
 10
1397.0
 20
-1424.891113
 10
1391.0
 20
-1418.891113
 10
1385.0
 20
-1424.891113
  0
MTEXT
  5
268
100
AcDbEntity
  8
LAYER47
390
0
  6
Continuous
 62
     7
100
AcDbMText
 10
1384.099976
 20
-1469.894165
 30
0.0
 40
18.0
 41
0.0
 71
     7
 72
     1
  1
60
 11
0.0
 21
1.0
 31
0.0
 73
     1
 44
1.2
  0
ENDBLK
  5
269
100
AcDbEntity
  8
0
390
0
100
AcDbBlockEnd
  0
ENDSEC
  0
SECTION
  2
ENTITIES
  0
LWPOLYLINE
  5
28
100
AcDbEntity
  8
LAYER47
370
    18
390
0
  6
Continuous
 62
     7
100
AcDbPolyline
 90
        4
 70
     1
 10
-5.0
 20
-1905.0
 10
-5.0
 20
-5.0
 10
2765.0
 20
-5.0
 10
2765.0
 20
-1905.0
  0
LWPOLYLINE
  5
2A
100
AcDbEntity
  8
LAYER47
370
    18
390
0
  6
DASHED
 62
     7
100
AcDbPolyline
 90
        4
 70
     1
 10
2950.0
 20
-1905.0
 10
2950.0
 20
-4.999023
 10
5720.0
 20
-4.999023
 10
5720.0
 20
-1905.0
  0
LWPOLYLINE
  5
2B
100
AcDbEntity
  8
LAYER01
370
    18
390
0
  6
Continuous
 62
     7
100
AcDbPolyline
 90
        4
 70
     1
 10
3218.013672
 20
-1715.0
 10
3218.013672
 20
-194.999023
 10
5434.013672
 20
-194.999023
 10
5434.013672
 20
-1715.0
  0
INSERT
  5
42
100
AcDbEntity
  8
LAYER47
390
0
100
AcDbBlockReference
  2
D47ZBANK_A1_0
 10
3513.013672
 20
-594.999023
 30
0.0
  0
INSERT
  5
5A
100
AcDbEntity
  8
LAYER47
390
0
100
AcDbBlockReference
  2
D47ZB1NK_A1_0
 10
4190.013672
 20
-594.999023
 30
0.0
  0
INSERT
  5
72
100
AcDbEntity
  8
LAYER47
390
0
100
AcDbBlockReference
  2
D47ZB2NK_A1_0
 10
4580.013672
 20
-594.999023
 30
0.0
  0
INSERT
  5
80
100
AcDbEntity
  8
LAYER47
390
0
100
AcDbBlockReference
  2
A47ZBANK_A1_0
 10
5203.013672
 20
-594.999023
 30
0.0
  0
INSERT
  5
95
100
AcDbEntity
  8
LAYER47
390
0
100
AcDbBlockReference
  2
D47ZB3NK_A1_0
 10
3808.013672
 20
-594.999023
 30
0.0
  0
INSERT
  5
A5
100
AcDbEntity
  8
LAYER47
390
0
100
AcDbBlockReference
  2
P47ZB1NK_A1_0
 10
4198.013672
 20
-799.999023
 30
0.0
  0
INSERT
  5
B1
100
AcDbEntity
  8
LAYER47
390
0
100
AcDbBlockReference
  2
P47ZB3NK_A1_0
 10
3808.013672
 20
-799.999023
 30
0.0
  0
INSERT
  5
C1
100
AcDbEntity
  8
LAYER47
390
0
100
AcDbBlockReference
  2
P47ZB2NK_A1_0
 10
4580.013672
 20
-799.999023
 30
0.0
  0
INSERT
  5
CA
100
AcDbEntity
  8
LAYER47
390
0
100
AcDbBlockReference
  2
A47ZB1NK_A1_0
 10
4198.013672
 20
-1119.999023
 30
0.0
  0
INSERT
  5
D3
100
AcDbEntity
  8
LAYER47
390
0
100
AcDbBlockReference
  2
A47ZB2NK_A1_0
 10
4580.013672
 20
-1119.999023
 30
0.0
  0
INSERT
  5
DB
100
AcDbEntity
  8
LAYER47
390
0
100
AcDbBlockReference
  2
A47ZB3NK_A1_0
 10
3808.013672
 20
-1119.999023
 30
0.0
  0
LWPOLYLINE
  5
DC
100
AcDbEntity
  8
LAYER47
370
    18
390
0
  6
DASHED
 62
     7
100
AcDbPolyline
 90
        2
 70
     0
 10
1473.0
 20
-486.0
 10
1344.71875
 20
-357.71582
  0
LWPOLYLINE
  5
DD
100
AcDbEntity
  8
LAYER47
370
    18
390
0
  6
DASHED
 62
     7
100
AcDbPolyline
 90
        2
 70
     0
 10
1427.039063
 20
-496.606689
 10
1316.429688
 20
-386.0
  0
INSERT
  5
E2
100
AcDbEntity
  8
LAYER47
390
0
100
AcDbBlockReference
  2
DUMMY1NK_A1_0
 10
726.422852
 20
-1232.57373
 30
0.0
 50
45.00007
  0
INSERT
  5
E3
100
AcDbEntity
  8
LAYER47
390
0
100
AcDbBlockReference
  2
DUMMY1NK_A1_0
 10
708.750977
 20
-1214.895996
 30
0.0
 50
45.00007
  0
LWPOLYLINE
  5
E4
100
AcDbEntity
  8
LAYER47
370
    18
390
0
  6
DASHED
 62
     7
100
AcDbPolyline
 90
        2
 70
     0
 10
587.407227
 20
-1319.59082
 10
587.407227
 20
-1253.362427
  0
LWPOLYLINE
  5
E5
100
AcDbEntity
  8
LAYER47
370
    18
390
0
  6
DASHED
 62
     7
100
AcDbPolyline
 90
        2
 70
     0
 10
667.407227
 20
-1319.59082
 10
667.407227
 20
-1228.59082
  0
LWPOLYLINE
  5
E6
100
AcDbEntity
  8
LAYER47
370
    18
390
0
  6
Continuous
 62
     7
100
AcDbPolyline
 90
        5
 70
     0
 10
849.063477
 20
-1099.802612
 10
696.610352
 20
-1252.255859
 10
696.610352
 20
-1380.255859
 10
496.610352
 20
-1380.255859
 10
496.610352
 20
-1320.255859
  0
LWPOLYLINE
  5
E7
100
AcDbEntity
  8
LAYER47
370
    13
390
0
  6
Continuous
 62
   213
100
AcDbPolyline
 90
        4
 70
     0
 10
742.133789
 20
-1297.775879
 10
701.680664
 20
-1257.322266
 10
1473.0
 20
-486.0
 10
1863.0
 20
-876.0
  0
LWPOLYLINE
  5
E8
100
AcDbEntity
  8
LAYER47
370
    13
390
0
  6
Continuous
 62
   213
100
AcDbPolyline
 90
        3
 70
     0
 10
719.352539
 20
-1275.0
 10
1473.0
 20
-521.355469
 10
1845.320313
 20
-893.677734
  0
INSERT
  5
E9
100
AcDbEntity
  8
LAYER47
390
0
100
AcDbBlockReference
  2
DUMMY1NK_A1_0
 10
1444.71875
 20
-514.284424
 30
0.0
 50
45.0
  0
LWPOLYLINE
  5
EA
100
AcDbEntity
  8
LAYER47
370
    18
390
0
  6
DASHED
 62
     7
100
AcDbPolyline
 90
        2
 70
     0
 10
1168.947754
 20
-754.699463
 10
1058.346191
 20
-644.093018
  0
LWPOLYLINE
  5
EB
100
AcDbEntity
  8
LAYER47
370
    18
390
0
  6
DASHED
 62
     7
100
AcDbPolyline
 90
        2
 70
     0
 10
910.854492
 20
-1012.792236
 10
800.25293
 20
-902.185791
  0
INSERT
  5
113
100
AcDbEntity
  8
LAYER47
390
0
100
AcDbBlockReference
  2
D47CJANK_A1_0
 10
1427.039063
 20
-496.606689
 30
0.0
 50
39.691807
  0
INSERT
  5
114
100
AcDbEntity
  8
LAYER47
390
0
100
AcDbBlockReference
  2
D47CJANK_A1_0
 10
1168.946777
 20
-754.700195
 30
0.0
 50
39.691807
  0
INSERT
  5
115
100
AcDbEntity
  8
LAYER47
390
0
100
AcDbBlockReference
  2
D47CJANK_A1_0
 10
910.852051
 20
-1012.793579
 30
0.0
 50
39.691807
  0
INSERT
  5
116
100
AcDbEntity
  8
LAYER47
390
0
100
AcDbBlockReference
  2
DUMMY1NK_A1_0
 10
1186.624512
 20
-772.37793
 30
0.0
 50
45.0
  0
INSERT
  5
117
100
AcDbEntity
  8
LAYER47
390
0
100
AcDbBlockReference
  2
DUMMY1NK_A1_0
 10
928.529785
 20
-1030.471313
 30
0.0
 50
45.0
  0
INSERT
  5
11C
100
AcDbEntity
  8
LAYER47
390
0
100
AcDbBlockReference
  2
DUMMY1NK_M_A1_0
 10
1501.28125
 20
-514.284424
 30
0.0
 50
135.0
  0
INSERT
  5
144
100
AcDbEntity
  8
LAYER47
390
0
100
AcDbBlockReference
  2
D47CJANK_M_A1_0
 10
1518.960938
 20
-496.606689
 30
0.0
 50
140.308193
  0
INSERT
  5
154
100
AcDbEntity
  8
LAYER47
390
0
100
AcDbBlockReference
  2
D47CJ1NK_A1_0
 10
1882.0
 20
-1424.891113
 30
0.0
  0
INSERT
  5
155
100
AcDbEntity
  8
LAYER47
390
0
100
AcDbBlockReference
  2
D47ZBANK_A1_0
 10
1473.0
 20
-486.0
 30
0.0
  0
INSERT
  5
165
100
AcDbEntity
  8
LAYER47
390
0
100
AcDbBlockReference
  2
D47CJ2NK_A1_0
 10
1667.0
 20
-1424.891113
 30
0.0
  0
INSERT
  5
175
100
AcDbEntity
  8
LAYER47
390
0
100
AcDbBlockReference
  2
D47CJ3NK_A1_0
 10
1882.0
 20
-1424.891113
 30
0.0
  0
LWPOLYLINE
  5
176
100
AcDbEntity
  8
0
370
    13
390
0
  6
Continuous
 62
   213
100
AcDbPolyline
 90
        6
 70
     1
 10
392.275635
 20
-1028.22998
 42
0.340559
 10
388.512695
 20
-1044.900879
 10
397.718506
 20
-1064.731445
 10
463.981445
 20
-1144.622803
 10
775.747803
 20
-832.856445
 10
715.463867
 20
-760.173584
  0
LWPOLYLINE
  5
177
100
AcDbEntity
  8
0
370
    13
390
0
  6
Continuous
 62
     9
100
AcDbPolyline
 90
        6
 70
     1
 10
392.275635
 20
-1028.22998
 42
0.340559
 10
388.512695
 20
-1044.900879
 10
397.718506
 20
-1064.731445
 10
463.981445
 20
-1144.622803
 10
775.747803
 20
-832.856445
 10
715.463867
 20
-760.173584
  0
LWPOLYLINE
  5
178
100
AcDbEntity
  8
0
370
    13
390
0
  6
Continuous
 62
    12
100
AcDbPolyline
 90
        6
 70
     1
 10
392.275635
 20
-1028.22998
 42
0.340559
 10
388.512695
 20
-1044.900879
 10
397.718506
 20
-1064.731445
 10
463.981445
 20
-1144.622803
 10
775.747803
 20
-832.856445
 10
715.463867
 20
-760.173584
  0
LWPOLYLINE
  5
179
100
AcDbEntity
  8
0
370
    13
390
0
  6
DOT
 62
   213
100
AcDbPolyline
 90
        6
 70
     1
 10
392.275635
 20
-1028.22998
 42
0.340559
 10
388.512695
 20
-1044.900879
 10
397.718506
 20
-1064.731445
 10
463.981445
 20
-1144.622803
 10
775.747803
 20
-832.856445
 10
715.463867
 20
-760.173584
  0
LWPOLYLINE
  5
17A
100
AcDbEntity
  8
0
370
    13
390
0
  6
Continuous
 62
   213
100
AcDbPolyline
 90
        6
 70
     1
 10
650.369629
 20
-770.135986
 42
0.340559
 10
646.606934
 20
-786.806885
 10
655.8125
 20
-806.637451
 10
722.075195
 20
-886.529053
 10
1033.841797
 20
-574.762451
 10
973.557861
 20
-502.07959
  0
LWPOLYLINE
  5
17B
100
AcDbEntity
  8
0
370
    13
390
0
  6
Continuous
 62
     9
100
AcDbPolyline
 90
        6
 70
     1
 10
650.369629
 20
-770.135986
 42
0.340559
 10
646.606934
 20
-786.806885
 10
655.8125
 20
-806.637451
 10
722.075195
 20
-886.529053
 10
1033.841797
 20
-574.762451
 10
973.557861
 20
-502.07959
  0
LWPOLYLINE
  5
17C
100
AcDbEntity
  8
0
370
    13
390
0
  6
Continuous
 62
    12
100
AcDbPolyline
 90
        6
 70
     1
 10
650.369629
 20
-770.135986
 42
0.340559
 10
646.606934
 20
-786.806885
 10
655.8125
 20
-806.637451
 10
722.075195
 20
-886.529053
 10
1033.841797
 20
-574.762451
 10
973.557861
 20
-502.07959
  0
LWPOLYLINE
  5
17D
100
AcDbEntity
  8
0
370
    13
390
0
  6
DOT
 62
   213
100
AcDbPolyline
 90
        6
 70
     1
 10
650.369629
 20
-770.135986
 42
0.340559
 10
646.606934
 20
-786.806885
 10
655.8125
 20
-806.637451
 10
722.075195
 20
-886.529053
 10
1033.841797
 20
-574.762451
 10
973.557861
 20
-502.07959
  0
LWPOLYLINE
  5
17E
100
AcDbEntity
  8
0
370
    13
390
0
  6
Continuous
 62
   213
100
AcDbPolyline
 90
        6
 70
     1
 10
908.463379
 20
-512.041992
 42
0.340559
 10
904.700684
 20
-528.712891
 10
913.90625
 20
-548.543457
 10
980.169434
 20
-628.435059
 10
1291.935791
 20
-316.668457
 10
1231.651855
 20
-243.985596
  0
LWPOLYLINE
  5
17F
100
AcDbEntity
  8
0
370
    13
390
0
  6
Continuous
 62
     9
100
AcDbPolyline
 90
        6
 70
     1
 10
908.463379
 20
-512.041992
 42
0.340559
 10
904.700684
 20
-528.712891
 10
913.90625
 20
-548.543457
 10
980.169434
 20
-628.435059
 10
1291.935791
 20
-316.668457
 10
1231.651855
 20
-243.985596
  0
LWPOLYLINE
  5
180
100
AcDbEntity
  8
0
370
    13
390
0
  6
Continuous
 62
    12
100
AcDbPolyline
 90
        6
 70
     1
 10
908.463379
 20
-512.041992
 42
0.340559
 10
904.700684
 20
-528.712891
 10
913.90625
 20
-548.543457
 10
980.169434
 20
-628.435059
 10
1291.935791
 20
-316.668457
 10
1231.651855
 20
-243.985596
  0
LWPOLYLINE
  5
181
100
AcDbEntity
  8
0
370
    13
390
0
  6
DOT
 62
   213
100
AcDbPolyline
 90
        6
 70
     1
 10
908.463379
 20
-512.041992
 42
0.340559
 10
904.700684
 20
-528.712891
 10
913.90625
 20
-548.543457
 10
980.169434
 20
-628.435059
 10
1291.935791
 20
-316.668457
 10
1231.651855
 20
-243.985596
  0
LWPOLYLINE
  5
182
100
AcDbEntity
  8
LAYER47
370
    13
390
0
  6
Continuous
 62
   213
100
AcDbPolyline
 90
        4
 70
     0
 10
542.457031
 20
-1098.098145
 10
502.003906
 20
-1057.644531
 10
1273.323486
 20
-286.322266
 10
1318.001221
 20
-331.0
  0
LWPOLYLINE
  5
183
100
AcDbEntity
  8
LAYER47
370
    13
390
0
  6
Continuous
 62
   213
100
AcDbPolyline
 90
        2
 70
     0
 10
4198.013672
 20
-423.998047
 10
4580.013672
 20
-423.998047
  0
LWPOLYLINE
  5
189
100
AcDbEntity
  8
LAYER47
370
    18
390
0
  6
Continuous
 62
     7
100
AcDbPolyline
 90
        2
 70
     0
 10
4198.013672
 20
-417.998047
 10
4198.013672
 20
-438.998047
  0
CIRCLE
  5
18A
100
AcDbEntity
  8
LAYER47
370
    18
390
0
  6
Continuous
 62
     7
100
AcDbCircle
 10
4198.013672
 20
-423.998047
 30
0.0
 40
4.0
  0
LWPOLYLINE
  5
18B
100
AcDbEntity
  8
LAYER47
370
    18
390
0
  6
Continuous
 62
     7
100
AcDbPolyline
 90
        2
 70
     0
 10
4580.013672
 20
-417.998047
 10
4580.013672
 20
-438.998047
  0
CIRCLE
  5
18C
100
AcDbEntity
  8
LAYER47
370
    18
390
0
  6
Continuous
 62
     7
100
AcDbCircle
 10
4580.013672
 20
-423.998047
 30
0.0
 40
4.0
  0
MTEXT
  5
18D
100
AcDbEntity
  8
LAYER47
390
0
  6
Continuous
 62
     7
100
AcDbMText
 10
4365.010742
 20
-417.998047
 30
0.0
 40
18.0
 41
0.0
 71
     7
 72
     1
  1
382
 73
     1
 44
1.2
  0
LWPOLYLINE
  5
18E
100
AcDbEntity
  8
LAYER47
370
    13
390
0
  6
Continuous
 62
   213
100
AcDbPolyline
 90
        2
 70
     0
 10
3808.013672
 20
-423.998047
 10
4198.013672
 20
-423.998047
  0
LWPOLYLINE
  5
18F
100
AcDbEntity
  8
LAYER47
370
    18
390
0
  6
Continuous
 62
     7
100
AcDbPolyline
 90
        2
 70
     0
 10
3808.013672
 20
-417.998047
 10
3808.013672
 20
-438.998047
  0
CIRCLE
  5
190
100
AcDbEntity
  8
LAYER47
370
    18
390
0
  6
Continuous
 62
     7
100
AcDbCircle
 10
3808.013672
 20
-423.998047
 30
0.0
 40
4.0
  0
LWPOLYLINE
  5
191
100
AcDbEntity
  8
LAYER47
370
    18
390
0
  6
Continuous
 62
     7
100
AcDbPolyline
 90
        2
 70
     0
 10
4198.013672
 20
-417.998047
 10
4198.013672
 20
-438.998047
  0
CIRCLE
  5
192
100
AcDbEntity
  8
LAYER47
370
    18
390
0
  6
Continuous
 62
     7
100
AcDbCircle
 10
4198.013672
 20
-423.998047
 30
0.0
 40
4.0
  0
MTEXT
  5
193
100
AcDbEntity
  8
LAYER47
390
0
  6
Continuous
 62
     7
100
AcDbMText
 10
3979.010742
 20
-417.998047
 30
0.0
 40
18.0
 41
0.0
 71
     7
 72
     1
  1
390
 73
     1
 44
1.2
  0
LWPOLYLINE
  5
194
100
AcDbEntity
  8
LAYER47
370
    13
390
0
  6
Continuous
 62
   213
100
AcDbPolyline
 90
        2
 70
     0
 10
4580.013672
 20
-423.999023
 10
4970.013672
 20
-423.999023
  0
LWPOLYLINE
  5
195
100
AcDbEntity
  8
LAYER47
370
    18
390
0
  6
Continuous
 62
     7
100
AcDbPolyline
 90
        2
 70
     0
 10
4580.013672
 20
-417.999023
 10
4580.013672
 20
-438.999023
  0
CIRCLE
  5
196
100
AcDbEntity
  8
LAYER47
370
    18
390
0
  6
Continuous
 62
     7
100
AcDbCircle
 10
4580.013672
 20
-423.999023
 30
0.0
 40
4.0
  0
LWPOLYLINE
  5
197
100
AcDbEntity
  8
LAYER47
370
    18
390
0
  6
Continuous
 62
     7
100
AcDbPolyline
 90
        2
 70
     0
 10
4970.013672
 20
-417.999023
 10
4970.013672
 20
-438.999023
  0
CIRCLE
  5
198
100
AcDbEntity
  8
LAYER47
370
    18
390
0
  6
Continuous
 62
     7
100
AcDbCircle
 10
4970.013672
 20
-423.999023
 30
0.0
 40
4.0
  0
MTEXT
  5
199
100
AcDbEntity
  8
LAYER47
390
0
  6
Continuous
 62
     7
100
AcDbMText
 10
4751.010742
 20
-417.999023
 30
0.0
 40
18.0
 41
0.0
 71
     7
 72
     1
  1
390
 73
     1
 44
1.2
  0
LWPOLYLINE
  5
19A
100
AcDbEntity
  8
LAYER47
370
    13
390
0
  6
Continuous
 62
   213
100
AcDbPolyline
 90
        2
 70
     0
 10
3415.013672
 20
-635.999023
 10
3611.013672
 20
-635.999023
  0
LWPOLYLINE
  5
19B
100
AcDbEntity
  8
LAYER47
370
    18
390
0
  6
Continuous
 62
     7
100
AcDbPolyline
 90
        2
 70
     0
 10
3415.013672
 20
-629.999023
 10
3415.013672
 20
-650.999023
  0
CIRCLE
  5
19C
100
AcDbEntity
  8
LAYER47
370
    18
390
0
  6
Continuous
 62
     7
100
AcDbCircle
 10
3415.013672
 20
-635.999023
 30
0.0
 40
4.0
  0
LWPOLYLINE
  5
19D
100
AcDbEntity
  8
LAYER47
370
    18
390
0
  6
Continuous
 62
     7
100
AcDbPolyline
 90
        2
 70
     0
 10
3611.013672
 20
-629.999023
 10
3611.013672
 20
-650.999023
  0
CIRCLE
  5
19E
100
AcDbEntity
  8
LAYER47
370
    18
390
0
  6
Continuous
 62
     7
100
AcDbCircle
 10
3611.013672
 20
-635.999023
 30
0.0
 40
4.0
  0
MTEXT
  5
19F
100
AcDbEntity
  8
LAYER47
390
0
  6
Continuous
 62
     7
100
AcDbMText
 10
3489.010742
 20
-629.999023
 30
0.0
 40
18.0
 41
0.0
 71
     7
 72
     1
  1
196
 73
     1
 44
1.2
  0
LWPOLYLINE
  5
1A0
100
AcDbEntity
  8
LAYER47
370
    13
390
0
  6
Continuous
 62
   213
100
AcDbPolyline
 90
        2
 70
     0
 10
1073.486816
 20
-659.23999
 10
1331.578003
 20
-401.147095
  0
LWPOLYLINE
  5
1A6
100
AcDbEntity
  8
LAYER47
370
    18
390
0
  6
Continuous
 62
     7
100
AcDbPolyline
 90
        2
 70
     0
 10
1067.122803
 20
-652.876099
 10
1085.507568
 20
-671.260742
  0
LWPOLYLINE
  5
1A7
100
AcDbEntity
  8
LAYER47
370
    18
390
0
  6
Continuous
 62
     7
100
AcDbPolyline
 90
        5
 70
     0
 10
1077.72998
 20
-654.996643
 10
1077.729492
 20
-663.482666
 10
1069.243408
 20
-663.483337
 10
1069.244141
 20
-654.997314
 10
1077.72998
 20
-654.996643
  0
LWPOLYLINE
  5
1A8
100
AcDbEntity
  8
LAYER47
370
    18
390
0
  6
Continuous
 62
     7
100
AcDbPolyline
 90
        2
 70
     0
 10
1325.214111
 20
-394.783173
 10
1343.598877
 20
-413.167816
  0
LWPOLYLINE
  5
1A9
100
AcDbEntity
  8
LAYER47
370
    18
390
0
  6
Continuous
 62
     7
100
AcDbPolyline
 90
        5
 70
     0
 10
1335.821289
 20
-396.903717
 10
1335.820557
 20
-405.38974
 10
1327.334717
 20
-405.390411
 10
1327.335205
 20
-396.904388
 10
1335.821289
 20
-396.903717
  0
LWPOLYLINE
  5
1AA
100
AcDbEntity
  8
LAYER47
370
    13
390
0
  6
Continuous
 62
   213
100
AcDbPolyline
 90
        2
 70
     0
 10
1331.578125
 20
-401.147217
 10
1359.867188
 20
-372.862793
  0
LWPOLYLINE
  5
1AF
100
AcDbEntity
  8
LAYER47
370
    18
390
0
  6
Continuous
 62
     7
100
AcDbPolyline
 90
        2
 70
     0
 10
1328.042725
 20
-397.611481
 10
1342.183838
 20
-411.754761
  0
LWPOLYLINE
  5
1B0
100
AcDbEntity
  8
LAYER47
370
    18
390
0
  6
Continuous
 62
     7
100
AcDbPolyline
 90
        2
 70
     0
 10
1356.331787
 20
-369.327057
 10
1370.4729
 20
-383.470367
  0
MTEXT
  5
1B1
100
AcDbEntity
  8
LAYER47
390
0
  6
Continuous
 62
     7
100
AcDbMText
 10
1334.996338
 20
-391.601837
 30
0.0
 40
13.0
 41
0.0
 71
     7
 72
     1
  1
40
 11
0.707165
 21
0.707049
 31
0.0
 73
     1
 44
1.2
  0
LWPOLYLINE
  5
1B2
100
AcDbEntity
  8
LAYER47
370
    13
390
0
  6
Continuous
 62
   213
100
AcDbPolyline
 90
        2
 70
     0
 10
587.407227
 20
-1319.59082
 10
667.407227
 20
-1319.59082
  0
LWPOLYLINE
  5
1B3
100
AcDbEntity
  8
LAYER47
370
    18
390
0
  6
Continuous
 62
     7
100
AcDbPolyline
 90
        2
 70
     0
 10
587.407104
 20
-1313.59082
 10
587.407104
 20
-1334.59082
  0
CIRCLE
  5
1B4
100
AcDbEntity
  8
LAYER47
370
    18
390
0
  6
Continuous
 62
     7
100
AcDbCircle
 10
587.407227
 20
-1319.59082
 30
0.0
 40
4.0
  0
LWPOLYLINE
  5
1B5
100
AcDbEntity
  8
LAYER47
370
    18
390
0
  6
Continuous
 62
     7
100
AcDbPolyline
 90
        2
 70
     0
 10
667.407104
 20
-1313.59082
 10
667.407104
 20
-1334.59082
  0
CIRCLE
  5
1B6
100
AcDbEntity
  8
LAYER47
370
    18
390
0
  6
Continuous
 62
     7
100
AcDbCircle
 10
667.407227
 20
-1319.59082
 30
0.0
 40
4.0
  0
MTEXT
  5
1B7
100
AcDbEntity
  8
LAYER47
390
0
  6
Continuous
 62
     7
100
AcDbMText
 10
612.404236
 20
-1313.59082
 30
0.0
 40
18.0
 41
0.0
 71
     7
 72
     1
  1
80
 73
     1
 44
1.2
  0
LWPOLYLINE
  5
1B8
100
AcDbEntity
  8
LAYER47
370
    13
390
0
  6
Continuous
 62
   213
100
AcDbPolyline
 90
        2
 70
     0
 10
815.391602
 20
-917.332764
 10
1073.486816
 20
-659.23999
  0
LWPOLYLINE
  5
1B9
100
AcDbEntity
  8
LAYER47
370
    18
390
0
  6
Continuous
 62
     7
100
AcDbPolyline
 90
        2
 70
     0
 10
809.02771
 20
-910.968811
 10
827.412354
 20
-929.353638
  0
LWPOLYLINE
  5
1BA
100
AcDbEntity
  8
LAYER47
370
    18
390
0
  6
Continuous
 62
     7
100
AcDbPolyline
 90
        5
 70
     0
 10
819.634888
 20
-913.089478
 10
819.634277
 20
-921.575439
 10
811.148193
 20
-921.57605
 10
811.148926
 20
-913.090088
 10
819.634888
 20
-913.089478
  0
LWPOLYLINE
  5
1BB
100
AcDbEntity
  8
LAYER47
370
    18
390
0
  6
Continuous
 62
     7
100
AcDbPolyline
 90
        2
 70
     0
 10
1067.122803
 20
-652.876038
 10
1085.507568
 20
-671.260864
  0
LWPOLYLINE
  5
1BC
100
AcDbEntity
  8
LAYER47
370
    18
390
0
  6
Continuous
 62
     7
100
AcDbPolyline
 90
        5
 70
     0
 10
1077.730225
 20
-654.996704
 10
1077.729492
 20
-663.482727
 10
1069.243408
 20
-663.483337
 10
1069.244141
 20
-654.997314
 10
1077.730225
 20
-654.996704
  0
LWPOLYLINE
  5
1BD
100
AcDbEntity
  8
LAYER47
370
    18
390
0
  6
DOT
 62
     7
100
AcDbPolyline
 90
        4
 70
     0
 10
1450.0
 20
-1517.0
 10
1450.0
 20
-1424.891113
 10
2062.0
 20
-1424.891113
 10
2062.0
 20
-1509.0
  0
INSERT
  5
1C2
100
AcDbEntity
  8
LAYER47
390
0
100
AcDbBlockReference
  2
D47CJANK_A1_S_0
 10
1427.039063
 20
-496.606689
 30
0.0
 50
39.691807
  0
INSERT
  5
1C3
100
AcDbEntity
  8
LAYER47
390
0
100
AcDbBlockReference
  2
D47CJANK_A1_S_0
 10
1168.946777
 20
-754.700195
 30
0.0
 50
39.691807
  0
INSERT
  5
1C4
100
AcDbEntity
  8
LAYER47
390
0
100
AcDbBlockReference
  2
D47CJANK_A1_S_0
 10
910.852051
 20
-1012.793579
 30
0.0
 50
39.691807
  0
INSERT
  5
1C9
100
AcDbEntity
  8
LAYER47
390
0
100
AcDbBlockReference
  2
D47CJANK_M_A1_S_0
 10
1518.960938
 20
-496.606689
 30
0.0
 50
140.308193
  0
INSERT
  5
1CE
100
AcDbEntity
  8
LAYER47
390
0
100
AcDbBlockReference
  2
D47CJ1NK_A1_S_0
 10
1882.0
 20
-1424.891113
 30
0.0
  0
INSERT
  5
1D7
100
AcDbEntity
  8
LAYER47
390
0
100
AcDbBlockReference
  2
D47CJ2NK_A1_S_0
 10
1667.0
 20
-1424.891113
 30
0.0
  0
INSERT
  5
1E0
100
AcDbEntity
  8
LAYER47
390
0
100
AcDbBlockReference
  2
D47CJ3NK_A1_S_0
 10
1882.0
 20
-1424.891113
 30
0.0
  0
INSERT
  5
1E6
100
AcDbEntity
  8
LAYER47
390
0
100
AcDbBlockReference
  2
A47ZBANK_A1_H_0
 10
5203.013672
 20
-594.999023
 30
0.0
  0
INSERT
  5
1EE
100
AcDbEntity
  8
LAYER47
390
0
100
AcDbBlockReference
  2
P47ZB1NK_A1_H_0
 10
4198.013672
 20
-799.999023
 30
0.0
  0
INSERT
  5
1F6
100
AcDbEntity
  8
LAYER47
390
0
100
AcDbBlockReference
  2
P47ZB2NK_A1_H_0
 10
4580.013672
 20
-799.999023
 30
0.0
  0
INSERT
  5
1FB
100
AcDbEntity
  8
LAYER47
390
0
100
AcDbBlockReference
  2
A47ZB1NK_A1_H_0
 10
4198.013672
 20
-1119.999023
 30
0.0
  0
INSERT
  5
200
100
AcDbEntity
  8
LAYER47
390
0
100
AcDbBlockReference
  2
A47ZB2NK_A1_H_0
 10
4580.013672
 20
-1119.999023
 30
0.0
  0
DIMENSION
  5
204
100
AcDbEntity
  8
LAYER47
390
0
  6
Continuous
 62
     7
100
AcDbDimension
  2
*D31
 10
4580.013672
 20
-423.998047
 30
0.0
 11
4389.013672
 21
-423.998047
 31
0.0
 71
     5
 72
     1
 41
1.0
 42
0.0
  3
ARKXD33
100
AcDbAlignedDimension
 13
4198.013672
 23
-423.998047
 33
0.0
 14
4580.013672
 24
-423.998047
 34
0.0
100
AcDbRotatedDimension
  0
DIMENSION
  5
209
100
AcDbEntity
  8
LAYER47
390
0
  6
Continuous
 62
     7
100
AcDbDimension
  2
*D32
 10
4198.013672
 20
-423.998047
 30
0.0
 11
4003.013672
 21
-423.998047
 31
0.0
 71
     5
 72
     1
 41
1.0
 42
0.0
  3
ARKXD33
100
AcDbAlignedDimension
 13
3808.013672
 23
-423.998047
 33
0.0
 14
4198.013672
 24
-423.998047
 34
0.0
100
AcDbRotatedDimension
  0
DIMENSION
  5
20D
100
AcDbEntity
  8
LAYER47
390
0
  6
Continuous
 62
     7
100
AcDbDimension
  2
*D33
 10
4970.013672
 20
-423.999023
 30
0.0
 11
4775.013672
 21
-423.999023
 31
0.0
 71
     5
 72
     1
 41
1.0
 42
0.0
  3
ARKXD33
100
AcDbAlignedDimension
 13
4580.013672
 23
-423.999023
 33
0.0
 14
4970.013672
 24
-423.999023
 34
0.0
100
AcDbRotatedDimension
  0
DIMENSION
  5
211
100
AcDbEntity
  8
LAYER47
390
0
  6
Continuous
 62
     7
100
AcDbDimension
  2
*D34
 10
3611.013672
 20
-635.999023
 30
0.0
 11
3513.013672
 21
-635.999023
 31
0.0
 71
     5
 72
     1
 41
1.0
 42
0.0
  3
ARKXD33
100
AcDbAlignedDimension
 13
3415.013672
 23
-635.999023
 33
0.0
 14
3611.013672
 24
-635.999023
 34
0.0
100
AcDbRotatedDimension
  0
DIMENSION
  5
215
100
AcDbEntity
  8
LAYER47
390
0
  6
Continuous
 62
     7
100
AcDbDimension
  2
*D35
 10
1331.577881
 20
-401.147095
 30
0.0
 11
1202.532227
 21
-530.193542
 31
0.0
 71
     5
 72
     1
 41
1.0
 42
0.0
  1
 
  3
ARKXD30
100
AcDbAlignedDimension
 13
1073.486816
 23
-659.23999
 33
0.0
 14
1331.577881
 24
-401.147095
 34
0.0
 50
45.000193
100
AcDbRotatedDimension
  0
DIMENSION
  5
21A
100
AcDbEntity
  8
LAYER47
390
0
  6
Continuous
 62
     7
100
AcDbDimension
  2
*D36
 10
1359.867188
 20
-372.862793
 30
0.0
 11
1345.722656
 21
-387.005005
 31
0.0
 71
     5
 72
     1
 41
1.0
 42
0.0
  3
ARKXD2
100
AcDbAlignedDimension
 13
1331.578125
 23
-401.147217
 33
0.0
 14
1359.867188
 24
-372.862793
 34
0.0
 50
44.995301
100
AcDbRotatedDimension
  0
DIMENSION
  5
21F
100
AcDbEntity
  8
LAYER47
390
0
  6
Continuous
 62
     7
100
AcDbDimension
  2
*D37
 10
667.407227
 20
-1319.59082
 30
0.0
 11
627.407227
 21
-1319.59082
 31
0.0
 71
     5
 72
     1
 41
1.0
 42
0.0
  3
ARKXD33
100
AcDbAlignedDimension
 13
587.407227
 23
-1319.59082
 33
0.0
 14
667.407227
 24
-1319.59082
 34
0.0
100
AcDbRotatedDimension
  0
DIMENSION
  5
223
100
AcDbEntity
  8
LAYER47
390
0
  6
Continuous
 62
     7
100
AcDbDimension
  2
*D38
 10
1073.486816
 20
-659.23999
 30
0.0
 11
944.439209
 21
-788.286377
 31
0.0
 71
     5
 72
     1
 41
1.0
 42
0.0
  1
 
  3
ARKXD30
100
AcDbAlignedDimension
 13
815.391602
 23
-917.332764
 33
0.0
 14
1073.486816
 24
-659.23999
 34
0.0
 50
44.999722
100
AcDbRotatedDimension
  0
DIMENSION
  5
237
100
AcDbEntity
  8
LAYER47
390
0
  6
Continuous
 62
     7
100
AcDbDimension
  2
*D39
 10
1882.0
 20
-1350.891113
 30
0.0
 11
1774.5
 21
-1350.891113
 31
0.0
 71
     5
 72
     1
 41
1.0
 42
0.0
  3
~R--E-C~
100
AcDbAlignedDimension
 13
1667.0
 23
-1424.891113
 33
0.0
 14
1882.0
 24
-1424.891113
 34
0.0
100
AcDbRotatedDimension
  0
DIMENSION
  5
242
100
AcDbEntity
  8
LAYER47
390
0
  6
Continuous
 62
     7
100
AcDbDimension
  2
*D42
 10
1450.0
 20
-1350.891113
 30
0.0
 11
1439.0
 21
-1350.891113
 31
0.0
 71
     5
 72
     1
 41
1.0
 42
0.0
  3
~R--E-C~
100
AcDbAlignedDimension
 13
1428.0
 23
-1424.891113
 33
0.0
 14
1450.0
 24
-1424.891113
 34
0.0
100
AcDbRotatedDimension
  0
DIMENSION
  5
24C
100
AcDbEntity
  8
LAYER47
390
0
  6
Continuous
 62
     7
100
AcDbDimension
  2
*D43
 10
1667.0
 20
-1350.891113
 30
0.0
 11
1558.5
 21
-1350.891113
 31
0.0
 71
     5
 72
     1
 41
1.0
 42
0.0
  3
~R--E-C~
100
AcDbAlignedDimension
 13
1450.0
 23
-1424.891113
 33
0.0
 14
1667.0
 24
-1424.891113
 34
0.0
100
AcDbRotatedDimension
  0
DIMENSION
  5
256
100
AcDbEntity
  8
LAYER47
390
0
  6
Continuous
 62
     7
100
AcDbDimension
  2
*D44
 10
2062.0
 20
-1350.891113
 30
0.0
 11
1972.0
 21
-1350.891113
 31
0.0
 71
     5
 72
     1
 41
1.0
 42
0.0
  3
~R--E-C~
100
AcDbAlignedDimension
 13
1882.0
 23
-1424.891113
 33
0.0
 14
2062.0
 24
-1424.891113
 34
0.0
100
AcDbRotatedDimension
  0
DIMENSION
  5
260
100
AcDbEntity
  8
LAYER47
390
0
  6
Continuous
 62
     7
100
AcDbDimension
  2
*D45
 10
2084.0
 20
-1350.891113
 30
0.0
 11
2073.0
 21
-1350.891113
 31
0.0
 71
     5
 72
     1
 41
1.0
 42
0.0
  3
~R--E-C~
100
AcDbAlignedDimension
 13
2062.0
 23
-1424.891113
 33
0.0
 14
2084.0
 24
-1424.891113
 34
0.0
100
AcDbRotatedDimension
  0
DIMENSION
  5
26A
100
AcDbEntity
  8
LAYER47
390
0
  6
Continuous
 62
     7
100
AcDbDimension
  2
*D46
 10
1391.0
 20
-1424.891113
 30
0.0
 11
1391.0
 21
-1454.891113
 31
0.0
 71
     5
 72
     1
 41
1.0
 42
0.0
  3
~R--E-C~
100
AcDbAlignedDimension
 13
1429.685547
 23
-1484.891113
 33
0.0
 14
1450.0
 24
-1424.891113
 34
0.0
 50
90.0
100
AcDbRotatedDimension
  0
MTEXT
  5
26B
100
AcDbEntity
  8
LAYER47
390
0
  6
Continuous
 62
     7
100
AcDbMText
 10
65.0
 20
-100.0
 30
0.0
 40
50.0
 41
0.0
 71
     7
 72
     1
  1
D-13U
 73
     1
 44
1.2
  0
MTEXT
  5
26C
100
AcDbEntity
  8
LAYER47
390
0
  6
Continuous
 62
     7
100
AcDbMText
 10
905.48291
 20
-815.509766
 30
0.0
 40
18.0
 41
0.0
 71
     7
 72
     1
  1
356-380 mm
 11
0.707107
 21
0.707107
 31
0.0
 73
     1
 44
1.2
  0
MTEXT
  5
26D
100
AcDbEntity
  8
LAYER47
390
0
  6
Continuous
 62
     7
100
AcDbMText
 10
1147.314209
 20
-573.680054
 30
0.0
 40
18.0
 41
0.0
 71
     7
 72
     1
  1
356-380 mm
 11
0.707107
 21
0.707107
 31
0.0
 73
     1
 44
1.2
  0
MTEXT
  5
26E
100
AcDbEntity
  8
LAYER01
390
0
  6
Continuous
 62
     7
100
AcDbMText
 10
3308.013672
 20
-304.999023
 30
0.0
 40
25.0
 41
0.0
 71
     7
 72
     1
  1
STANDAARD VORST
 73
     1
 44
1.2
  0
ENDSEC
  0
SECTION
  2
OBJECTS
  0
DICTIONARY
  5
19
100
AcDbDictionary
280
     0
281
     1
  3
ACAD_GROUP
350
1A
  3
ACAD_MLINESTYLE
350
1B
  3
ACAD_LAYOUT
350
1E
  3
ACAD_PLOTSETTINGS
350
22
  3
ACAD_PLOTSTYLENAME
350
1F
  3
ACAD_WIPEOUT_VARS
350
23
  0
DICTIONARY
  5
1A
102
{ACAD_REACTORS
330
19
102
}
100
AcDbDictionary
280
     0
281
     1
  0
DICTIONARY
  5
1B
102
{ACAD_REACTORS
330
19
102
}
100
AcDbDictionary
280
     0
281
     1
  3
Standard
350
1C
  0
MLINESTYLE
  5
1C
102
{ACAD_REACTORS
330
1B
102
}
100
AcDbMlineStyle
  2
Standard
 70
     0
  3

 62
     0
 51
90.0
 52
90.0
 71
     2
 49
0.5
 62
   256
  6
ByLayer
 49
-0.5
 62
   256
  6
ByLayer
  0
ACDBDICTIONARYWDFLT
  5
1F
102
{ACAD_REACTORS
330
19
102
}
100
AcDbDictionary
281
     1
  3
Normal
350
1D
100
AcDbDictionaryWithDefault
340
1D
  0
ACDBPLACEHOLDER
  5
1D
102
{ACAD_REACTORS
330
1F
102
}
  0
LAYOUT
  5
20
102
{ACAD_REACTORS
330
1E
102
}
100
AcDbPlotSettings
  1

  2

  4

  6

 40
0.0
 41
0.0
 42
0.0
 43
0.0
 44
0.0
 45
0.0
 46
0.0
 47
0.0
 48
0.0
 49
0.0
140
0.0
141
0.0
142
1.0
143
1.0
 70
  1024
 72
     0
 73
     0
 74
     0
  7

 75
     0
147
1.0
148
0.0
149
0.0
100
AcDbLayout
  1
Model
 70
     0
 71
     0
 10
0.0
 20
0.0
 11
0.0
 21
0.0
 12
0.0
 22
0.0
 32
0.0
 14
0.0
 24
0.0
 34
0.0
 15
0.0
 25
0.0
 35
0.0
146
0.0
 13
0.0
 23
0.0
 33
0.0
 16
0.0
 26
0.0
 36
0.0
 17
0.0
 27
0.0
 37
0.0
 76
     0
330
A
331
0
345
0
346
0
  0
LAYOUT
  5
21
102
{ACAD_REACTORS
330
1E
102
}
100
AcDbPlotSettings
  1

  2

  4

  6

 40
0.0
 41
0.0
 42
0.0
 43
0.0
 44
0.0
 45
0.0
 46
0.0
 47
0.0
 48
0.0
 49
0.0
140
0.0
141
0.0
142
1.0
143
1.0
 70
     0
 72
     0
 73
     0
 74
     0
  7

 75
     0
147
1.0
148
0.0
149
0.0
100
AcDbLayout
  1
Layout1
 70
     0
 71
     0
 10
0.0
 20
0.0
 11
0.0
 21
0.0
 12
0.0
 22
0.0
 32
0.0
 14
0.0
 24
0.0
 34
0.0
 15
0.0
 25
0.0
 35
0.0
146
0.0
 13
0.0
 23
0.0
 33
0.0
 16
0.0
 26
0.0
 36
0.0
 17
0.0
 27
0.0
 37
0.0
 76
     0
330
B
331
0
345
0
346
0
  0
DICTIONARY
  5
1E
102
{ACAD_REACTORS
330
19
102
}
100
AcDbDictionary
280
     0
281
     1
  3
Layout1
350
21
  3
Model
350
20
  0
DICTIONARY
  5
22
102
{ACAD_REACTORS
330
19
102
}
100
AcDbDictionary
280
     0
281
     1
  0
WIPEOUTVARIABLES
  5
23
100
AcDbWipeoutVariables
 70
     1
  0
ENDSEC
  0
EOF
